Поиск

2002 Stefano Bollani Trio - Black And Tan Fantasy (2018) {Venus} [DSD64 ISO]

2002 Stefano Bollani Trio - Black And Tan Fantasy (2018) {Venus} [DSD64 ISO]
Стили:
Дата записи диска:
7 июля - 8 июля 2002
Место записи:
The House Recording Studio, Rome, Italy
Дата издания диска:
21 декабря 2002
Дата переиздания диска:
20 июня 2018
Издатель (лейбл):
Номер по каталогу:
VHGD-298
Носитель:
SACD
Формат:
DSD
Тип рипа:
image
Контейнер:
ISO (*.iso)
Количество каналов:
2.0
Разрядность/ЧД:
64 (2,8 MHz/1 Bit)
Битрейт аудио:
lossless
Время звучания:
00:45:51
Наличие сканов:
только обложка

Треклист:

1. Just One of Those Things  03:54
2. Black and Tan Fantasy  04:28
3. Day Dream  03:36
4. I'm Thru With Love  05:12
5. It's Always You  05:53
6. It's You or No One  06:01
7. La Ultima Noche  04:41
8. Flowers Is a Lovesome Thing  05:40
9. The Sophisticated Lady  06:23

Состав:
  •     Bass – Ares Tavolazzi
  •     Drums – Walter Paoli
  •     Mixed By, Mastered By – Shuji Kitamura, Tetsuo Hara
  •     Piano – Stefano Bollani
  •     Producer – Tetsuo Hara
Лог проверки качества
foobar2000 1.6.8 / Dynamic Range Meter 1.1.1
log date: 2022-01-21 23:33:17
--------------------------------------------------------------------------------
Analyzed: STEFANO BOLLANI TRIO / Black And Tan Fantasy
--------------------------------------------------------------------------------
DR         Peak         RMS     Duration Track
--------------------------------------------------------------------------------
DR7       -4.38 dB   -14.27 dB      3:54 01-Just One Of Those Things
DR9       -4.84 dB   -17.04 dB      4:28 02-Black And Tan Fantasy
DR11      -4.91 dB   -18.19 dB      3:36 03-Day Dream
DR8       -4.73 dB   -15.26 dB      5:12 04-I'm Thru With Love
DR12      -5.13 dB   -21.36 dB      5:54 05-It's Always You
DR8       -4.50 dB   -15.86 dB      6:01 06-It's You Or No One
DR8       -5.21 dB   -16.36 dB      4:42 07-La Ultima Noche
DR8       -4.41 dB   -15.10 dB      5:41 08-Flower Is A Lovesome Thing
DR11      -4.66 dB   -19.55 dB      6:23 09-The Sophisticated Lady
--------------------------------------------------------------------------------
Number of tracks:  9
Official DR value: DR9
Samplerate:        2822400 Hz / PCM Samplerate: 88200 Hz
Channels:          2
Bits per sample:   1
Bitrate:           5645 kbps
Codec:             DSD64
================================================================================
Download available for power users only.
To become a power user - read FAQ.
20:31
185
Нет комментариев. Ваш будет первым!