Поиск

2002 Russ Freeman - Drive {Peak PKD-8511-2}

2002 Russ Freeman - Drive {Peak PKD-8511-2}
Дата издания диска:
2002
Издатель (лейбл):
Номер по каталогу:
PKD-8511-2
Носитель:
CD
Битрейт аудио:
lossless
Аудиокодек:
FLAC (*.flac)
Тип рипа:
tracks
Время звучания:
45:59
Наличие сканов:
  • нет
Релизёр (источник):
JanV

Треклист:

01. Guitarland [0:04:47.52]
02. Villa By The Sea [0:04:55.18]
03. Soul Dance [0:04:41.40]
04. Brighter Day [0:04:32.57]
05. Boys of Summer [0:04:36.68]
06. Anywhere Near You [0:04:45.50]
07. Drive [0:04:30.20]
08. Cool In The Shade [0:04:16.57]
09. East River Drive [0:05:00.50]
10. Bellagio [0:03:49.68]

Состав:
  • Russ Freeman — Guitar, Keyboards
  • Chris Botti — Trumpet
  • Barry Eastmond, Bill Heller, Jason Miles, Jeff Lorber — Keyboards
  • Eric Marienthal — Saxophone
  • Jeff Mirinov — Guitar
  • Will Lee — Bass
  • Buddy Williams — Drums
  • Pablo Batista — Percussion
     
Лог создания рипа
Отчёт EAC об извлечении, выполненном 13. марта 2007, 22:55 для диска:
Russ Freeman / Drive

Дисковод: TSSTcorpCD/DVDW SH-S182D Adapter: 1 ID: 0
Режим чтения: Достоверный (C2: нет, Точный поток: да, Отключение кэша: да)
Комбинированное смещение чтения/записи: 0
Способность читать области Lead-in и Lead-out : Нет

Выходной формат: Внутренние WAV-операции
44.100 Гц; 16 бит; стерео

Другие параметры:
Заполнение пропущенных сэмплов тишиной : Да
Удаление блоков с тишиной в начале и конце : Нет
Встроенный Win32-интерфейс для Win NT/2000

Трек 1
Имя файла E:\DVD's\temp\Archive\Russ Freeman\Drive\01 - Guitarland.wav

Пиковый уровень 98.7 %
Качество трека 100.0 %
CRC теста 83C07C83
CRC копии 83C07C83
Копирование... OK

Трек 2
Имя файла E:\DVD's\temp\Archive\Russ Freeman\Drive\02 - Villa By The Sea.wav

Пиковый уровень 98.7 %
Качество трека 100.0 %
CRC теста 97C6FC3E
CRC копии 97C6FC3E
Копирование... OK

Трек 3
Имя файла E:\DVD's\temp\Archive\Russ Freeman\Drive\03 - Soul Dance.wav

Пиковый уровень 98.7 %
Качество трека 100.0 %
CRC теста 855D6829
CRC копии 855D6829
Копирование... OK

Трек 4
Имя файла E:\DVD's\temp\Archive\Russ Freeman\Drive\04 - Brighter Day.wav

Пиковый уровень 98.7 %
Качество трека 100.0 %
CRC теста E4F9DF12
CRC копии E4F9DF12
Копирование... OK

Трек 5
Имя файла E:\DVD's\temp\Archive\Russ Freeman\Drive\05 - Boys of Summer.wav

Пиковый уровень 98.7 %
Качество трека 100.0 %
CRC теста 18E55B4A
CRC копии 18E55B4A
Копирование... OK

Трек 6
Имя файла E:\DVD's\temp\Archive\Russ Freeman\Drive\06 - Anywhere Near You.wav

Пиковый уровень 98.7 %
Качество трека 100.0 %
CRC теста D04F0DA0
CRC копии D04F0DA0
Копирование... OK

Трек 7
Имя файла E:\DVD's\temp\Archive\Russ Freeman\Drive\07 - Drive.wav

Пиковый уровень 98.7 %
Качество трека 100.0 %
CRC теста 28762C6B
CRC копии 28762C6B
Копирование... OK

Трек 8
Имя файла E:\DVD's\temp\Archive\Russ Freeman\Drive\08 - Cool In The Shade.wav

Пиковый уровень 98.7 %
Качество трека 100.0 %
CRC теста EF804D19
CRC копии EF804D19
Копирование... OK

Трек 9
Имя файла E:\DVD's\temp\Archive\Russ Freeman\Drive\09 - East River Drive.wav

Пиковый уровень 99.8 %
Качество трека 100.0 %
CRC теста E5C7A3AF
CRC копии E5C7A3AF
Копирование... OK

Трек 10
Имя файла E:\DVD's\temp\Archive\Russ Freeman\Drive\10 - Bellagio.wav

Пиковый уровень 98.7 %
Качество трека 100.0 %
CRC теста B6C83936
CRC копии B6C83936
Копирование... OK

Ошибок не произошло

Конец отчёта
Содержание индексной карты (.CUE)
REM GENRE "Smooth Jazz"
REM DATE 2002
REM COMMENT "ExactAudioCopy v0.99pb4"
PERFORMER "Russ Freeman"
TITLE "Drive"
FILE "01 - Guitarland.flac" WAVE
  TRACK 01 AUDIO
    INDEX 01 00:00:00
FILE "02 - Villa By The Sea.flac" WAVE
  TRACK 02 AUDIO
    INDEX 01 00:00:00
FILE "03 - Soul Dance.flac" WAVE
  TRACK 03 AUDIO
    INDEX 01 00:00:00
FILE "04 - Brighter Day.flac" WAVE
  TRACK 04 AUDIO
    INDEX 01 00:00:00
FILE "05 - Boys of Summer.flac" WAVE
  TRACK 05 AUDIO
    INDEX 01 00:00:00
FILE "06 - Anywhere Near You.flac" WAVE
  TRACK 06 AUDIO
    INDEX 01 00:00:00
FILE "07 - Drive.flac" WAVE
  TRACK 07 AUDIO
    INDEX 01 00:00:00
FILE "08 - Cool In The Shade.flac" WAVE
  TRACK 08 AUDIO
    INDEX 01 00:00:00
FILE "09 - East River Drive.flac" WAVE
  TRACK 09 AUDIO
    INDEX 01 00:00:00
FILE "10 - Bellagio.flac" WAVE
  TRACK 10 AUDIO
    INDEX 01 00:00:00
Лог проверки качества
[CUETools log; Date: 21.10.2017 23:44:13; Version: 2.1.5]
[CTDB TOCID: iMyylJzRYrXvi5dZb7wfwH_cIiM-] found.
        [ CTDBID ] Status
        [5c486a7d] (23/23) Accurately ripped
Track | CTDB Status
  1   | (23/23) Accurately ripped
  2   | (23/23) Accurately ripped
  3   | (23/23) Accurately ripped
  4   | (23/23) Accurately ripped
  5   | (23/23) Accurately ripped
  6   | (23/23) Accurately ripped
  7   | (23/23) Accurately ripped
  8   | (23/23) Accurately ripped
  9   | (23/23) Accurately ripped
 10   | (23/23) Accurately ripped
[AccurateRip ID: 0011b3a7-008d0f4d-900ac50a] found.
Track   [  CRC   |   V2   ] Status
 01     [b850dd21|ede8c591] (00+00/41) No match
 02     [beb0acdb|fe49e5bc] (00+00/41) No match
 03     [01245ad7|67e94291] (00+00/41) No match
 04     [73ccba5a|564e0f67] (00+00/41) No match
 05     [9474b3bc|4d6f8cdc] (00+00/41) No match
 06     [c3e18175|209a6019] (00+00/41) No match
 07     [d805daac|098092ca] (00+00/41) No match
 08     [3f295699|9b20d5a8] (00+00/41) No match
 09     [a6e1a1d2|0fa2bd31] (00+00/41) No match
 10     [8d0f1d18|ca6ff25e] (00+00/41) No match
Offsetted by 6:
 01     [dcc57962] (10/41) Accurately ripped
 02     [6f24b55d] (10/41) Accurately ripped
 03     [82bad2fd] (10/41) Accurately ripped
 04     [659526ef] (10/41) Accurately ripped
 05     [2f28e832] (10/41) Accurately ripped
 06     [9a5a564b] (10/41) Accurately ripped
 07     [c95d068d] (10/41) Accurately ripped
 08     [60041e80] (10/41) Accurately ripped
 09     [710504e5] (10/41) Accurately ripped
 10     [ab4b0325] (10/41) Accurately ripped
Offsetted by 670:
 01     [c319da95] (05/41) Accurately ripped
 02     [5cdaeb5c] (05/41) Accurately ripped
 03     [19903618] (05/41) Accurately ripped
 04     [68fc36c6] (05/41) Accurately ripped
 05     [4f406004] (05/41) Accurately ripped
 06     [6a5a1109] (05/41) Accurately ripped
 07     [da8cdf84] (05/41) Accurately ripped
 08     [301a9fc5] (05/41) Accurately ripped
 09     [9e8bf911] (05/41) Accurately ripped
 10     [9c02dd9f] (05/41) Accurately ripped
Offsetted by -36:
 01     [7f4af186] (00/41) No match (V2 was not tested)
 02     [46ba7cdf] (00/41) No match (V2 was not tested)
 03     [3b02908b] (00/41) No match (V2 was not tested)
 04     [129f1350] (00/41) No match (V2 was not tested)
 05     [f8c424aa] (00/41) No match (V2 was not tested)
 06     [bfb06e7f] (00/41) No match (V2 was not tested)
 07     [a742b106] (00/41) No match (V2 was not tested)
 08     [734ce206] (00/41) No match (V2 was not tested)
 09     [d9c5db53] (00/41) No match (V2 was not tested)
 10     [cfe85eec] (00/41) No match (V2 was not tested)

Track Peak [ CRC32  ] [W/O NULL] 
 --   99,8 [B01B03ED] [5B88F2A4]           
 01   98,7 [CBFF9971] [83C07C83]           
 02   98,7 [FF978C64] [97C6FC3E]           
 03   98,7 [8A865FD4] [855D6829]           
 04   98,7 [F16B43AD] [E4F9DF12]           
 05   98,7 [58CFD4DF] [18E55B4A]           
 06   98,7 [F4901E62] [D04F0DA0]           
 07   98,7 [53A0367E] [28762C6B]           
 08   98,7 [7649C6CB] [EF804D19]           
 09   99,8 [EC8A92B3] [E5C7A3AF]           
 10   98,7 [19AF5EA8] [B6C83936]
Приватный:
Нет (DHT включён)
Размер:
310.40 Мб (325,476,459 байт) » файлов: 15
Участники:
0 раздают, 0 качают (0 участников всего)
Внешние участники:
Нет внешних трекеров [ Обновить ]
23:53
53
RSS
Нет комментариев. Ваш будет первым!