Поиск

2000 Down to the Bone - Spread the Word: Album III {Internal Bass IBCD 19}

2000 Down to the Bone - Spread the Word: Album III {Internal Bass IBCD 19}
Дата издания диска:
14 ноября 2000
Издатель (лейбл):
Номер по каталогу:
IBCD 19
Носитель:
CD
Аудиокодек:
APE (*.ape)
Тип рипа:
tracks+.cue
Битрейт аудио:
1
Время звучания:
01:01:19
Релизёр (источник):
Гость
Треклист:

Треклист:
01. 01 Keep On Keepin' On (5:35)
02. 02 Sound As A Pound (6:50)
03. 03 Righteous Reeds (6:29)
04. 04 Bridgeport Boogie (6:12)
05. 05 Soul Brother No. 1 (5:34)
06. 06 Downtown Shuffle (5:52)
07. 07 Black Choice (7:46)
08. 08 The Backburner (5:37)
09. 09 The Lowdown (5:28)
10. 10 Mighty Mighty Fine (5:53)

 
Лог создания рипа

Отчёт EAC об извлечении, выполненном 8. февраля 2007, 18:33 для диска:
Down to the Bone / Spread The Word - Album III

Дисковод: PLEXTOR DVDR   PX-716A   Adapter: 3  ID: 0
Режим чтения: Достоверный (C2: нет, Точный поток: да, Отключение кэша: да)
Комбинированное смещение чтения/записи: 0
Способность читать области Lead-in и Lead-out : Нет

Выходной формат: Внутренние WAV-операции
                     44.100 Гц; 16 бит; стерео

Другие параметры:
    Заполнение пропущенных сэмплов тишиной : Да
    Удаление блоков с тишиной в начале и конце : Нет
    Встроенный Win32-интерфейс для Win NT/2000

Трек  1
     Имя файла D:\wav\01 Keep On Keepin' On.wav

     Длина предзазора  0:00:02.32

     Пиковый уровень 98.8 %
     Качество трека 100.0 %
     CRC теста B86FCF9F
     CRC копии B86FCF9F
     Копирование... OK

Трек  2
     Имя файла D:\wav\02 Sound As A Pound.wav

     Длина предзазора  0:00:01.00

     Пиковый уровень 98.8 %
     Качество трека 100.0 %
     CRC теста A175CD24
     CRC копии A175CD24
     Копирование... OK

Трек  3
     Имя файла D:\wav\03 Righteous Reeds.wav

     Длина предзазора  0:00:00.17

     Пиковый уровень 98.8 %
     Качество трека 100.0 %
     CRC теста 67689C68
     CRC копии 67689C68
     Копирование... OK

Трек  4
     Имя файла D:\wav\04 Bridgeport Boogie.wav

     Длина предзазора  0:00:00.10

     Пиковый уровень 98.8 %
     Качество трека 100.0 %
     CRC теста 931D850E
     CRC копии 931D850E
     Копирование... OK

Трек  5
     Имя файла D:\wav\05 Soul Brother No. 1.wav

     Длина предзазора  0:00:00.33

     Пиковый уровень 98.8 %
     Качество трека 100.0 %
     CRC теста 3FFFD707
     CRC копии 3FFFD707
     Копирование... OK

Трек  6
     Имя файла D:\wav\06 Downtown Shuffle.wav

     Длина предзазора  0:00:00.40

     Пиковый уровень 98.8 %
     Качество трека 100.0 %
     CRC теста 3E655847
     CRC копии 3E655847
     Копирование... OK

Трек  7
     Имя файла D:\wav\07 Black Choice.wav

     Длина предзазора  0:00:00.45

     Пиковый уровень 98.8 %
     Качество трека 100.0 %
     CRC теста A9E73EAE
     CRC копии A9E73EAE
     Копирование... OK

Трек  8
     Имя файла D:\wav\08 The Backburner.wav

     Длина предзазора  0:00:00.20

     Пиковый уровень 98.8 %
     Качество трека 100.0 %
     CRC теста 3FC01320
     CRC копии 3FC01320
     Копирование... OK

Трек  9
     Имя файла D:\wav\09 The Lowdown.wav

     Длина предзазора  0:00:00.70

     Пиковый уровень 98.8 %
     Качество трека 100.0 %
     CRC теста 32AE15CB
     CRC копии 32AE15CB
     Копирование... OK

Трек 10
     Имя файла D:\wav\10 Mighty Mighty Fine.wav

     Длина предзазора  0:00:00.20

     Пиковый уровень 98.8 %
     Качество трека 100.0 %
     CRC теста 4C489BFA
     CRC копии 4C489BFA
     Копирование... OK

Ошибок не произошло

Конец отчёта

 
Содержание индексной карты (.CUE)

REM GENRE Jazz
REM DATE 2000
REM DISCID 7E0E600A
REM COMMENT "ExactAudioCopy v0.95b4"
PERFORMER "Down to the Bone"
TITLE "Spread The Word - Album III"
FILE "01 Keep On Keepin' On.wav" WAVE
  TRACK 01 AUDIO
    TITLE "Keep On Keepin' On"
    PERFORMER "Down to the Bone"
    PREGAP 00:00:32
    INDEX 01 00:00:00
  TRACK 02 AUDIO
    TITLE "Sound As A Pound"
    PERFORMER "Down to the Bone"
    INDEX 00 05:34:40
FILE "02 Sound As A Pound.wav" WAVE
    INDEX 01 00:00:00
  TRACK 03 AUDIO
    TITLE "Righteous Reeds"
    PERFORMER "Down to the Bone"
    INDEX 00 06:49:63
FILE "03 Righteous Reeds.wav" WAVE
    INDEX 01 00:00:00
  TRACK 04 AUDIO
    TITLE "Bridgeport Boogie"
    PERFORMER "Down to the Bone"
    INDEX 00 06:29:58
FILE "04 Bridgeport Boogie.wav" WAVE
    INDEX 01 00:00:00
  TRACK 05 AUDIO
    TITLE "Soul Brother No. 1"
    PERFORMER "Down to the Bone"
    INDEX 00 06:11:67
FILE "05 Soul Brother No. 1.wav" WAVE
    INDEX 01 00:00:00
  TRACK 06 AUDIO
    TITLE "Downtown Shuffle"
    PERFORMER "Down to the Bone"
    INDEX 00 05:34:05
FILE "06 Downtown Shuffle.wav" WAVE
    INDEX 01 00:00:00
  TRACK 07 AUDIO
    TITLE "Black Choice"
    PERFORMER "Down to the Bone"
    INDEX 00 05:51:67
FILE "07 Black Choice.wav" WAVE
    INDEX 01 00:00:00
  TRACK 08 AUDIO
    TITLE "The Backburner"
    PERFORMER "Down to the Bone"
    INDEX 00 07:45:58
FILE "08 The Backburner.wav" WAVE
    INDEX 01 00:00:00
  TRACK 09 AUDIO
    TITLE "The Lowdown"
    PERFORMER "Down to the Bone"
    INDEX 00 05:36:25
FILE "09 The Lowdown.wav" WAVE
    INDEX 01 00:00:00
  TRACK 10 AUDIO
    TITLE "Mighty Mighty Fine"
    PERFORMER "Down to the Bone"
    INDEX 00 05:28:22
FILE "10 Mighty Mighty Fine.wav" WAVE
    INDEX 01 00:00:00

 

Скачивание доступно после регистрации!!
Приватный:
Нет (DHT включён)
Размер:
385.22 Мб (403,936,261 байт) » файлов: 15
Участники:
0 раздают, 0 качают (0 участников всего)
Внешние участники:
--- [ Обновить ]
20:07
227
Нет комментариев. Ваш будет первым!