Поиск

2002 Donald Byrd — Birdhouse {Delta Distribution 20505}

2002 Donald Byrd — Birdhouse {Delta Distribution 20505}
Страна-производитель диска (релиза):
USA
Дата издания диска:
25 февраля 2002
Номер по каталогу:
20505
Носитель:
CD
Битрейт аудио:
lossless
Аудиокодек:
FLAC (*.flac)
Тип рипа:
tracks+.cue
Время звучания:
59:55
Наличие сканов:
  • да
Релизёр (источник):
JanV
Треклист:

01. Curro's 6:39
02. Mr Lucky's Theme 8:05
03. Out of This World 9:32
04. Birdhouse 6:15
05. Daydreams 5:07
06. Chasing the Bird 3:45
07. Ping Pong 6:06
08. Construction 2:21
09. November Afternoon 2:47
10. Call to Arms 4:18
11. Wee Tina 4:54

Состав:
  • Donald Byrd — Trumpet
  • Pepper Adams — Baritone Saxophone
  • Herbie Hancock — Piano
  • Layman Jackson — Bass
  • Jimmy Cobb — Drums
Лог создания рипа
Отчёт EAC об извлечении, выполненном 30. июня 2010, 15:20 для диска:
Donald Byrd / Birdhouse
Дисковод: HL-DT-STDVD-RAM GH22LP20 Adapter: 0 ID: 0
Режим чтения: Достоверный (C2: нет, Точный поток: да, Отключение кэша: да)
Коррекция смещения при чтении: 131
Способность читать области Lead-in и Lead-out : Да
Выходной формат: Внутренние WAV-операции
44.100 Гц; 16 бит; стерео
Другие параметры:
Заполнение пропущенных сэмплов тишиной : Да
Удаление блоков с тишиной в начале и конце : Нет
Встроенный Win32-интерфейс для Win NT/2000
Трек 1
Имя файла E:\Musik Lossless\RIP\01. Donald Byrd - Curro's.wav
Пиковый уровень 100.0 %
Качество трека 100.0 %
CRC теста 5F2A6023
CRC копии 5F2A6023
Копирование... OK
Трек 2
Имя файла E:\Musik Lossless\RIP\02. Donald Byrd - Mr. Lucky's Theme.wav
Пиковый уровень 100.0 %
Качество трека 100.0 %
CRC теста 2522EE65
CRC копии 2522EE65
Копирование... OK
Трек 3
Имя файла E:\Musik Lossless\RIP\03. Donald Byrd - Out Of This World.wav
Пиковый уровень 100.0 %
Качество трека 100.0 %
CRC теста 74C7A1BA
CRC копии 74C7A1BA
Копирование... OK
Трек 4
Имя файла E:\Musik Lossless\RIP\04. Donald Byrd - Birdhouse.wav
Пиковый уровень 100.0 %
Качество трека 100.0 %
CRC теста F2DA4DC2
CRC копии F2DA4DC2
Копирование... OK
Трек 5
Имя файла E:\Musik Lossless\RIP\05. Donald Byrd - Daydreams.wav
Пиковый уровень 100.0 %
Качество трека 100.0 %
CRC теста 300D16EF
CRC копии 300D16EF
Копирование... OK
Трек 6
Имя файла E:\Musik Lossless\RIP\06. Donald Byrd - Chasing The Bird.wav
Пиковый уровень 100.0 %
Качество трека 100.0 %
CRC теста 789559A6
CRC копии 789559A6
Копирование... OK
Трек 7
Имя файла E:\Musik Lossless\RIP\07. Donald Byrd - Ping Pong.wav
Пиковый уровень 100.0 %
Качество трека 100.0 %
CRC теста B60F882C
CRC копии B60F882C
Копирование... OK
Трек 8
Имя файла E:\Musik Lossless\RIP\08. Donald Byrd - Construction.wav
Пиковый уровень 98.5 %
Качество трека 100.0 %
CRC теста 3FAAC744
CRC копии 3FAAC744
Копирование... OK
Трек 9
Имя файла E:\Musik Lossless\RIP\09. Donald Byrd - November Afternoon.wav
Пиковый уровень 100.0 %
Качество трека 99.9 %
CRC теста 1C51AE7E
CRC копии 1C51AE7E
Копирование... OK
Трек 10
Имя файла E:\Musik Lossless\RIP\10. Donald Byrd - Call To Arms.wav
Пиковый уровень 100.0 %
Качество трека 100.0 %
CRC теста 6ABA0919
CRC копии 6ABA0919
Копирование... OK
Трек 11
Имя файла E:\Musik Lossless\RIP\11. Donald Byrd - Wee Tina.wav
Пиковый уровень 100.0 %
Качество трека 100.0 %
CRC теста 68FE83BE
CRC копии 68FE83BE
Копирование... OK
Ошибок не произошло
Конец отчёта
Содержание индексной карты (.CUE)
REM GENRE Jazz
REM DISCID 960E0B0B
REM COMMENT "ExactAudioCopy v0.95b4"
PERFORMER "Donald Byrd"
TITLE "Birdhouse"
FILE "01. Donald Byrd - Curro's.wav" WAVE TRACK 01 AUDIO TITLE "Curro's" PERFORMER "Donald Byrd" INDEX 01 00:00:00
FILE "02. Donald Byrd - Mr. Lucky's Theme.wav" WAVE TRACK 02 AUDIO TITLE "Mr. Lucky's Theme" PERFORMER "Donald Byrd" INDEX 00 00:00:00 INDEX 01 00:01:57
FILE "03. Donald Byrd - Out Of This World.wav" WAVE TRACK 03 AUDIO TITLE "Out Of This World" PERFORMER "Donald Byrd" INDEX 00 00:00:00 INDEX 01 00:01:57
FILE "04. Donald Byrd - Birdhouse.wav" WAVE TRACK 04 AUDIO TITLE "Birdhouse" PERFORMER "Donald Byrd" INDEX 00 00:00:00 INDEX 01 00:01:57
FILE "05. Donald Byrd - Daydreams.wav" WAVE TRACK 05 AUDIO TITLE "Daydreams" PERFORMER "Donald Byrd" INDEX 00 00:00:00 INDEX 01 00:01:57
FILE "06. Donald Byrd - Chasing The Bird.wav" WAVE TRACK 06 AUDIO TITLE "Chasing The Bird" PERFORMER "Donald Byrd" INDEX 00 00:00:00 INDEX 01 00:01:57
FILE "07. Donald Byrd - Ping Pong.wav" WAVE TRACK 07 AUDIO TITLE "Ping Pong" PERFORMER "Donald Byrd" INDEX 00 00:00:00 INDEX 01 00:01:57
FILE "08. Donald Byrd - Construction.wav" WAVE TRACK 08 AUDIO TITLE "Construction" PERFORMER "Donald Byrd" INDEX 00 00:00:00 INDEX 01 00:01:57
FILE "09. Donald Byrd - November Afternoon.wav" WAVE TRACK 09 AUDIO TITLE "November Afternoon" PERFORMER "Donald Byrd" INDEX 00 00:00:00 INDEX 01 00:01:57
FILE "10. Donald Byrd - Call To Arms.wav" WAVE TRACK 10 AUDIO TITLE "Call To Arms" PERFORMER "Donald Byrd" INDEX 00 00:00:00 INDEX 01 00:01:57
FILE "11. Donald Byrd - Wee Tina.wav" WAVE TRACK 11 AUDIO TITLE "Wee Tina" PERFORMER "Donald Byrd" INDEX 00 00:00:00 INDEX 01 00:01:57
Приватный:
Нет (DHT включён)
Размер:
379.25 Мб (397,675,626 байт) » файлов: 17
Участники:
0 раздают, 0 качают (0 участников всего)
Внешние участники:
1 раздают, 0 качают (1 участников всего) [ Обновить ]
Скорость:
0/c 25.22 Кб/c
20:47
250
RSS
Нет комментариев. Ваш будет первым!