Поиск

1954 Art Blakey & Clifford Brown - Art Blakey & Clifford Brown {Bella Musica BM-CD 31.4038}

1954 Art Blakey & Clifford Brown - Art Blakey & Clifford Brown {Bella Musica BM-CD 31.4038}
Страна-производитель диска (релиза):
USA
Дата записи диска:
21 февраля 1954
Дата издания диска:
1954
Номер по каталогу:
BM-CD 31.4038
Носитель:
CD
Битрейт аудио:
lossless
Аудиокодек:
FLAC (*.flac)
Тип рипа:
tracks
Время звучания:
58:30
Наличие сканов:
  • нет
Релизёр (источник):
JanV
Треклист:
1. Quicksilver (Silver) 8:30
2. Now's the Time (Parker) 8:19
3. Wee-Dot (Johnson, Parker) 6:49
4. Mayreh (Silver) 5:53
5. Split Kick (Silver) 8:30
6. If I Had You (Campbell, Connelly, Shapiro) 3:29
7. A Night in Tunisia (Gillespie, Paparelli) 9:13
8. Confirmation/Lullaby of Birdland (Foster, Parker, Shearing) 8:46
Состав:
Лог создания рипа
Отчёт EAC об извлечении, выполненном 22. октября 2007, 0:15 для диска:
Art Blakey & Clifford Brown / Art Blakey & Clifford Brown
Дисковод: TSSTcorpCD/DVDW SH-S182D Adapter: 1 ID: 0
Режим чтения: Достоверный (C2: нет, Точный поток: да, Отключение кэша: да)
Комбинированное смещение чтения/записи: 0
Способность читать области Lead-in и Lead-out : Нет
Выходной формат: Внутренние WAV-операции
44.100 Гц; 16 бит; стерео
Другие параметры:
Заполнение пропущенных сэмплов тишиной : Да
Удаление блоков с тишиной в начале и конце : Нет
Встроенный Win32-интерфейс для Win NT/2000
Трек 1
Имя файла D:\Music\jazz\B\Art Blakey\Art Blakey & Clifford Brown\01 - Quicksilver.wav
Пиковый уровень 91.8 %
Качество трека 100.0 %
CRC теста 9D0B3714
CRC копии 9D0B3714
Копирование... OK
Трек 2
Имя файла D:\Music\jazz\B\Art Blakey\Art Blakey & Clifford Brown\02 - Now's The Time.wav
Пиковый уровень 94.6 %
Качество трека 100.0 %
CRC теста A635FA1C
CRC копии A635FA1C
Копирование... OK
Трек 3
Имя файла D:\Music\jazz\B\Art Blakey\Art Blakey & Clifford Brown\03 - Wee-Dot.wav
Пиковый уровень 92.3 %
Качество трека 100.0 %
CRC теста C8BF6E0D
CRC копии C8BF6E0D
Копирование... OK
Трек 4
Имя файла D:\Music\jazz\B\Art Blakey\Art Blakey & Clifford Brown\04 - Mayreh.wav
Пиковый уровень 91.3 %
Качество трека 100.0 %
CRC теста A2B73F7D
CRC копии A2B73F7D
Копирование... OK
Трек 5
Имя файла D:\Music\jazz\B\Art Blakey\Art Blakey & Clifford Brown\05 - Split Kick.wav
Пиковый уровень 91.7 %
Качество трека 100.0 %
CRC теста 1E34CDFC
CRC копии 1E34CDFC
Копирование... OK
Трек 6
Имя файла D:\Music\jazz\B\Art Blakey\Art Blakey & Clifford Brown\06 - If I Had You.wav
Пиковый уровень 91.3 %
Качество трека 100.0 %
CRC теста B34E2943
CRC копии B34E2943
Копирование... OK
Трек 7
Имя файла D:\Music\jazz\B\Art Blakey\Art Blakey & Clifford Brown\07 - A Night In Tunesia.wav
Пиковый уровень 92.0 %
Качество трека 100.0 %
CRC теста 76434924
CRC копии 76434924
Копирование... OK
Трек 8
Имя файла D:\Music\jazz\B\Art Blakey\Art Blakey & Clifford Brown\08 - Confirmation.wav
Пиковый уровень 92.0 %
Качество трека 100.0 %
CRC теста D4DA2B0E
CRC копии D4DA2B0E
Копирование... OK
Ошибок не произошло
Конец отчёта
Приватный:
Нет (DHT включён)
Размер:
409.36 Мб (429,243,536 байт) » файлов: 12
Участники:
0 раздают, 0 качают (0 участников всего)
Внешние участники:
3 раздают, 1 качают (4 участников всего) [ Обновить ]
16:19
90
RSS
Нет комментариев. Ваш будет первым!