Вы используете незарегистрированную версию компонента "Вкладки"!

Поиск

2000 Wilma Thalen - Sophisticated Lady (2015) {Turtle TR0005} [DSF64]

2000 Wilma Thalen - Sophisticated Lady (2015) {Turtle TR0005} [DSF64]
Битрейт аудио:
lossless
Доп. инфо:

Формат записи/Источник записи: [DSD][OF]
Наличие водяных знаков: Нет
Год издания/переиздания диска: 2000/2015
Издатель (лейбл): Turtle Records
Продолжительность: 56:22
Наличие сканов в содержимом раздачи: Буклет PDF
Источник (релизер): nativeDSDmusic

Контейнер: DSF (*.dsf)
Тип рипа: tracks
Разрядность: 64(2,8 MHz/1 Bit)
Формат: DSD
Количество каналов: 2.0

Лог проверки качества
foobar2000 1.5.3 / Dynamic Range Meter 1.1.1
log date: 2020-04-06 17:09:17

--------------------------------------------------------------------------------
Analyzed: Wilma Thalen / Sophisticated Lady
--------------------------------------------------------------------------------

DR         Peak         RMS     Duration Track
--------------------------------------------------------------------------------
DR15      -6.43 dB   -26.17 dB      5:28 01-Sophisticated Lady
DR15      -7.01 dB   -27.29 dB      3:58 02-In the wee small hours of the morning
DR14      -8.79 dB   -27.64 dB      5:18 03-My one and only love
DR15      -9.41 dB   -29.20 dB      4:19 04-Peace
DR14      -7.76 dB   -26.39 dB      3:14 05-Time remembered
DR15      -7.63 dB   -27.75 dB      6:16 06-A nightingale sang in Berkeley square
DR15      -7.60 dB   -28.03 dB      4:40 07-Infant eyes
DR14     -13.13 dB   -29.75 dB      4:31 08-Spring can really hang you up the most
DR15      -9.31 dB   -28.44 dB      4:31 09-Spring Fever
DR15      -7.75 dB   -27.37 dB      4:43 10-Soul eyes
DR14      -7.79 dB   -26.56 dB      2:56 11-Silence
DR15      -7.46 dB   -27.57 dB      3:12 12-Blue in Green
DR14      -5.79 dB   -25.85 dB      3:15 13-Sweet Loraine
--------------------------------------------------------------------------------

Number of tracks:  13
Official DR value: DR15

Samplerate:        2822400 Hz / PCM Samplerate: 176400 Hz
Channels:          2
Bits per sample:   1
Bitrate:           5645 kbps
Codec:             DSD64
================================================================================
Any questions - support@pro-jazz.com. Есть вопросы - support@pro-jazz.com
21:42
279
Нет комментариев. Ваш будет первым!