Поиск

1956-1962 Ahmad Jamal Trio - Complete Argo Sessions Vol.4 (2018) {Crazy Warthog} [24-44,1]

1956-1962 Ahmad Jamal Trio - Complete Argo Sessions Vol.4 (2018) {Crazy Warthog} [24-44,1]
Стили:
Издатель (лейбл):
Битрейт аудио:
lossless
Доп. инфо:

Формат записи/Источник записи: [TR24][OF]
Издание: Remastered
Год издания/переиздания диска: 2018
Издатель (лейбл): Crazy Warthog Media
Продолжительность: 01:12:23
Наличие сканов в содержимом раздачи: Нет

Контейнер: FLAC (*.flac)
Тип рипа: tracks
Разрядность: 24/44,1
Количество каналов: 2.0

Источник (релизер): Qobuz

Лог проверки качества
foobar2000 1.3.7 / Dynamic Range Meter 1.1.1
log date: 2019-07-02 05:00:14

--------------------------------------------------------------------------------
Analyzed: Ahmad Jamal / Complete Ahmad Jamal Trio Argo Sessions Vol.4 1956-1962
--------------------------------------------------------------------------------

DR         Peak         RMS     Duration Track
--------------------------------------------------------------------------------
DR12       0.00 dB   -14.52 dB      5:04 01-Let's Fall in Love
DR16      -0.01 dB   -18.49 dB      3:17 02-Aki and Ukthay
DR13       0.00 dB   -14.85 dB      3:31 03-You Don't Know What Love Is
DR14       0.00 dB   -16.38 dB      4:36 04-I Didn't Know What Time It Was
DR13       0.00 dB   -15.21 dB      3:40 05-So Beats My Heart for You
DR15       0.00 dB   -17.39 dB      4:46 06-A Gal in Calico
DR14       0.00 dB   -16.98 dB      2:58 07-Our Delight
DR14       0.00 dB   -17.12 dB      4:15 08-Too Late Now
DR13       0.00 dB   -15.46 dB      3:32 09-The Night Has a Thousand Eyes
DR12       0.00 dB   -14.66 dB      5:14 10-Little Old Lady
DR14      -0.03 dB   -18.14 dB      2:45 11-For All We Know
DR11       0.00 dB   -14.80 dB      5:45 12-Pavanne
DR12      -0.02 dB   -15.71 dB      3:02 13-Excerpts From The Blues
DR11      -0.01 dB   -14.19 dB      3:18 14-Easy To Love
DR12       0.00 dB   -15.55 dB      1:34 15-Time On My Hands
DR14       0.00 dB   -17.03 dB      4:42 16-Raincheck
DR16       0.00 dB   -19.82 dB      3:01 17-I'll Never Stop Loving You
DR13       0.00 dB   -15.19 dB      4:54 18-Speak Low
DR11       0.00 dB   -14.23 dB      2:41 19-Rhumba No. 2
--------------------------------------------------------------------------------

Number of tracks:  19
Official DR value: DR13

Samplerate:        44100 Hz
Channels:          2
Bits per sample:   24
Bitrate:           1466 kbps
Codec:             FLAC
================================================================================
No seeders - write personal message to M0p94ok. Any questions - support@pro-jazz.com.
Нет сидеров - пишите в личку M0p94ok. Есть вопросы - support@pro-jazz.com
21:28
316
Нет комментариев. Ваш будет первым!