Поиск

2000 Ray Barretto & New World Spirit - Trancedance {EmArcy 159 653-2} [CD]

2000 Ray Barretto & New World Spirit - Trancedance {EmArcy 159 653-2} [CD]
Треклист:

01. Hi-Fly (6:06)
02. I Remember Tito (6:15)
03. Para Que Niegas (6:45)
04. Fever (5:34)
05. Trancedance (8:07)
06. Sunset/On the Trail (from The Grand Canyon Suite) (7:13)
07. Round About Midnight (7:29)
08. Iberian Interlude (6:49)
09. Renewal (6:34)

Доп. инфо:
Лог создания рипа
Exact Audio Copy V1.1 from 23. June 2015
EAC extraction logfile from 28. October 2016, 9:51
Ray Baretto & New World Spirit / Trancedance
Used drive : ASUS DRW-24F1ST a Adapter: 1 ID: 0
Read mode : Secure
Utilize accurate stream : Yes
Defeat audio cache : Yes
Make use of C2 pointers : No
Read offset correction : 6
Overread into Lead-In and Lead-Out : No
Fill up missing offset samples with silence : Yes
Delete leading and trailing silent blocks : No
Null samples used in CRC calculations : Yes
Used interface : Native Win32 interface for Win NT & 2000
Gap handling : Appended to previous track
Used output format : User Defined Encoder
Selected bitrate : 32 kBit/s
Quality : High
Add ID3 tag : No
Command line compressor : C:\Program Files (x86)\Exact Audio Copy\Flac\flac.exe
Additional command line options : -8 -e -V -T "ARTIST=%artist%" -T "TITLE=%title%" -T "ALBUM=%albumtitle%" -T "DATE=%year%" -T "TRACKNUMBER=%tracknr%" -T "GENRE=%genre%" -T "PERFORMER=%albuminterpret%" -T "COMPOSER=%composer%" %haslyrics%--tag-from-file=LYRICS="%lyricsfile%"%haslyrics% -T "ALBUMARTIST=%albumartist%" -T "DISCNUMBER=%cdnumber%" -T "TOTALDISCS=%totalcds%" -T "TOTALTRACKS=%numtracks%" -T "COMMENT=%comment%" %source% -o %dest%
TOC of the extracted CD
Track | Start | Length | Start sector | End sector
---------------------------------------------------------
1 | 0:00.00 | 6:06.00 | 0 | 27449
2 | 6:06.00 | 6:15.00 | 27450 | 55574
3 | 12:21.00 | 6:45.05 | 55575 | 85954
4 | 19:06.05 | 5:34.00 | 85955 | 111004
5 | 24:40.05 | 8:07.00 | 111005 | 147529
6 | 32:47.05 | 7:13.00 | 147530 | 180004
7 | 40:00.05 | 7:29.00 | 180005 | 213679
8 | 47:29.05 | 6:49.02 | 213680 | 244356
9 | 54:18.07 | 6:34.08 | 244357 | 273914
Track 1
Filename D:\EAC Rips\Ray Barretto & the new World Spirit - Trancedance\01 Hi fly.wav
Pre-gap length 0:00:02.00
Peak level 99.9 %
Extraction speed 1.8 X
Track quality 100.0 %
Test CRC 56AF33EF
Copy CRC 56AF33EF
Accurately ripped (confidence 2) [29990655] (AR v2)
Copy OK
Track 2
Filename D:\EAC Rips\Ray Barretto & the new World Spirit - Trancedance\02 I remember tito.wav
Pre-gap length 0:00:02.70
Peak level 98.4 %
Extraction speed 2.1 X
Track quality 100.0 %
Test CRC 0982695F
Copy CRC 0982695F
Accurately ripped (confidence 2) [92643931] (AR v2)
Copy OK
Track 3
Filename D:\EAC Rips\Ray Barretto & the new World Spirit - Trancedance\03 Para que niegas.wav
Pre-gap length 0:00:02.61
Peak level 99.9 %
Extraction speed 2.4 X
Track quality 100.0 %
Test CRC D26CEC26
Copy CRC D26CEC26
Accurately ripped (confidence 2) [CAA9E9C9] (AR v2)
Copy OK
Track 4
Filename D:\EAC Rips\Ray Barretto & the new World Spirit - Trancedance\04 Fever.wav
Pre-gap length 0:00:01.37
Peak level 99.9 %
Extraction speed 2.2 X
Track quality 99.9 %
Test CRC 36660B32
Copy CRC 36660B32
Accurately ripped (confidence 2) [D58F98B3] (AR v2)
Copy OK
Track 5
Filename D:\EAC Rips\Ray Barretto & the new World Spirit - Trancedance\05 Trancedance.wav
Pre-gap length 0:00:01.84
Peak level 99.4 %
Extraction speed 2.5 X
Track quality 99.9 %
Test CRC 3523917C
Copy CRC 3523917C
Accurately ripped (confidence 2) [87458FE4] (AR v2)
Copy OK
Track 6
Filename D:\EAC Rips\Ray Barretto & the new World Spirit - Trancedance\06 Sunset - On the trail.wav
Pre-gap length 0:00:01.84
Peak level 99.9 %
Extraction speed 3.1 X
Track quality 100.0 %
Test CRC D8E24CB4
Copy CRC D8E24CB4
Accurately ripped (confidence 2) [BA439316] (AR v2)
Copy OK
Track 7
Filename D:\EAC Rips\Ray Barretto & the new World Spirit - Trancedance\07 Round about midnight.wav
Pre-gap length 0:00:03.13
Peak level 99.7 %
Extraction speed 3.3 X
Track quality 100.0 %
Test CRC 0BE7D852
Copy CRC 0BE7D852
Accurately ripped (confidence 2) [2CDD7B2F] (AR v2)
Copy OK
Track 8
Filename D:\EAC Rips\Ray Barretto & the new World Spirit - Trancedance\08 Iberian interlude.wav
Pre-gap length 0:00:02.93
Peak level 99.9 %
Extraction speed 2.9 X
Track quality 99.9 %
Test CRC 44A740F4
Copy CRC 44A740F4
Accurately ripped (confidence 2) [65EB5F09] (AR v2)
Copy OK
Track 9
Filename D:\EAC Rips\Ray Barretto & the new World Spirit - Trancedance\09 Renewal.wav
Pre-gap length 0:00:03.09
Peak level 98.4 %
Extraction speed 2.9 X
Track quality 99.9 %
Test CRC 78B7EC88
Copy CRC 78B7EC88
Accurately ripped (confidence 2) [17ED6343] (AR v2)
Copy OK
All tracks accurately ripped
No errors occurred
End of status report
---- CUETools DB Plugin V2.1.6
[CTDB TOCID: qFPpmIc87_81UJvSEIMZJOl8HzM-] found
Submit result: qFPpmIc87_81UJvSEIMZJOl8HzM- has been confirmed
Track | CTDB Status
1 | (7/7) Accurately ripped
2 | (7/7) Accurately ripped
3 | (7/7) Accurately ripped
4 | (7/7) Accurately ripped
5 | (7/7) Accurately ripped
6 | (7/7) Accurately ripped
7 | (7/7) Accurately ripped
8 | (7/7) Accurately ripped
9 | (7/7) Accurately ripped
==== Log checksum FCE28D55FB01E056981037717CB610EF0E243834C23B84AF7BFBA78EC596E0DC ====
Содержание индексной карты (.CUE)
REM GENRE Latin
REM DATE 2000
REM DISCID 7A0E4409
REM COMMENT "ExactAudioCopy v1.1"
PERFORMER "Ray Barretto & New World Spirit"
TITLE "Trancedance"
FILE "01 - Hi-Fly.wav" WAVE
TRACK 01 AUDIO
TITLE "Hi-Fly"
PERFORMER "Ray Barretto & New World Spirit"
ISRC FRZ020080220
INDEX 01 00:00:00
TRACK 02 AUDIO
TITLE "I Remember Tito"
PERFORMER "Ray Barretto & New World Spirit"
ISRC FRZ020080250
INDEX 00 06:03:22
FILE "02 - I Remember Tito.wav" WAVE
INDEX 01 00:00:00
TRACK 03 AUDIO
TITLE "Para Que Niegas"
PERFORMER "Ray Barretto & New World Spirit"
ISRC FRZ020080320
INDEX 00 06:12:29
FILE "03 - Para Que Niegas.wav" WAVE
INDEX 01 00:00:00
TRACK 04 AUDIO
TITLE "Fever"
PERFORMER "Ray Barretto & New World Spirit"
ISRC FRZ020080270
INDEX 00 06:43:52
FILE "04 - Fever.wav" WAVE
INDEX 01 00:00:00
TRACK 05 AUDIO
TITLE "Trancedance"
PERFORMER "Ray Barretto & New World Spirit"
ISRC FRZ020080260
INDEX 00 05:32:12
FILE "05 - Trancedance.wav" WAVE
INDEX 01 00:00:00
TRACK 06 AUDIO
TITLE "Sunset/On the Trail (from The Grand Canyon Suite)"
PERFORMER "Ray Barretto & New World Spirit"
ISRC FRZ020080300
INDEX 00 08:05:12
FILE "06 - Sunset,On the Trail (from The Grand Canyon Suite).wav" WAVE
INDEX 01 00:00:00
TRACK 07 AUDIO
TITLE "Round About Midnight"
PERFORMER "Ray Barretto & New World Spirit"
ISRC FRZ020080290
INDEX 00 07:09:65
FILE "07 - Round About Midnight.wav" WAVE
INDEX 01 00:00:00
TRACK 08 AUDIO
TITLE "Iberian Interlude"
PERFORMER "Ray Barretto & New World Spirit"
ISRC FRZ020080310
INDEX 00 07:26:05
FILE "08 - Iberian Interlude.wav" WAVE
INDEX 01 00:00:00
TRACK 09 AUDIO
TITLE "Renewal"
PERFORMER "Ray Barretto & New World Spirit"
ISRC FRZ020080280
INDEX 00 06:45:70
FILE "09 - Renewal.wav" WAVE
INDEX 01 00:00:00
Отчет CUETools
[CUETools log; Date: 02.05.2019 22:10:20; Version: 2.1.6]
[CTDB TOCID: qFPpmIc87_81UJvSEIMZJOl8HzM-] found.
Track | CTDB Status
1 | (8/8) Accurately ripped
2 | (8/8) Accurately ripped
3 | (8/8) Accurately ripped
4 | (8/8) Accurately ripped
5 | (8/8) Accurately ripped
6 | (8/8) Accurately ripped
7 | (8/8) Accurately ripped
8 | (8/8) Accurately ripped
9 | (8/8) Accurately ripped
[AccurateRip ID: 00147050-00974491-7a0e4409] found.
Track [ CRC | V2 ] Status
01 [7febd820|29990655] (0+2/2) Accurately ripped
02 [6cfeb6d6|92643931] (0+2/2) Accurately ripped
03 [8210d50d|caa9e9c9] (0+2/2) Accurately ripped
04 [870db561|d58f98b3] (0+2/2) Accurately ripped
05 [c07879a6|87458fe4] (0+2/2) Accurately ripped
06 [56461421|ba439316] (0+2/2) Accurately ripped
07 [fdcbcb13|2cdd7b2f] (0+2/2) Accurately ripped
08 [d8b146cc|65eb5f09] (0+2/2) Accurately ripped
09 [2789f8a1|17ed6343] (0+2/2) Accurately ripped
Track Peak [ CRC32 ] [W/O NULL] [ LOG ]
-- 99,9 [249F35EA] [54B8BB47]
01 99,9 [56AF33EF] [F92DA65B] CRC32
02 98,4 [0982695F] [7C33900F] CRC32
03 99,9 [D26CEC26] [D0FDABA8] CRC32
04 99,9 [36660B32] [4E12D6F0] CRC32
05 99,4 [3523917C] [16CD15B3] CRC32
06 99,9 [D8E24CB4] [11D78E91] CRC32
07 99,7 [0BE7D852] [D9BEF226] CRC32
08 99,9 [44A740F4] [4B1BC236] CRC32
09 98,4 [78B7EC88] [4C0EC3FC] CRC32
AllMusic Review by Ken Dryden
Conga player Ray Barretto's Trancedance is hardly a typical Latin affair, as the music is extremely wide-ranging, including 20th century classical works, classic jazz works from several decades, a pop hit, and originals by the leader. His core band consists of trumpeter John Bailey, pianist John Di Martino, saxophonist Adam Kolker, bassist Gregg August, and drummer Vince Cherico. Di Martino's intricate scoring of Monty Alexander's "Renewal" (incorporating several guest Latin percussionists plus James Moody's magical flute) is the perfect opener, followed by a similar lineup tackling the pianist's brisk arrangement of Randy Weston's "Hi-Fly." Kolker's inventive take of Thelonious Monk's "'Round About Midnight" may be the most innovative since George Russell's famous recording of "'Round Midnight" on the Riverside release Ezz-Thetics. Kolker's intriguing approach to two segments of The Grand Canyon Suite ("Sunset" and "On the Trail") find him interweaving his soprano sax with Moody's flute, while the Latin percussion fits right in with the loping gait of the donkeys in "Sunset." Kolker switches to tenor sax for a rather brisk rendition of "On the Trail." Transforming Peggy Lee's hit "Fever" into a Latin setting makes it even more sensuous, particularly with his come-hither soprano sax. All of Barretto's originals also merit praise, especially his tribute to the late conga player Tito Puente, who helped put the instrument on the map in jazz. This is easily one of Ray Barretto's best all-around recordings.
Приватный:
Нет (DHT включён)
Размер:
351.20 Мб (368,255,295 байт) » файлов: 17
Участники:
9 раздают, 0 качают (9 участников всего)
Внешние участники:
5 раздают, 1 качают (6 участников всего) [ Обновить ]
For power users only: no seeders - write to support@pro-jazz.com. Для power user: нет сидеров - пишите на support@pro-jazz.com.
03:02
90
Нет комментариев. Ваш будет первым!