Поиск

1999 Monty Alexander - Stir It Up: The Music of Bob Marley {Telarc CD-83469-SA}

1999 Monty Alexander - Stir It Up: The Music of Bob Marley {Telarc CD-83469-SA}
Дата записи диска:
10-12 октября 1998
Дата издания диска:
1999
Издатель (лейбл):
Номер по каталогу:
CD-83496
Носитель:
CD
Битрейт аудио:
lossless
Аудиокодек:
APE (*.ape)
Тип рипа:
image+.cue
Время звучания:
71:40
Релизёр (источник):
TinRed
Треклист:
01. Jammin' 6:19
02. Kaya 4:26
03. The Heathen 5:25
04. Could You Be Loved 4:04
05. Running Away 6:43
06. Stir It Up 5:18
07. Is This Love? 4:57
08. No Woman, No Cry 6:13
09. Crisis 6:09
10. I Shot the Sheriff 6:25
11. So Jah Seh 6:53
12. Nesta (He Touched the Sky) 3:00
13. Could You Be Loved (Extended remix featuring Sly Dunbar) 5:42
 
 Avatar Studios, Studio A, New York, NY 
Состав:
  • Monty Alexander Composer, Piano
  • Robert Angus Guitar
  • Glen Browne Arranger, Bass, Director, Producer
  • Troy Davis Drums
  • Dwight Dawes Keyboards
  • Trevor McKenzie Bass
  • Derek DiCenzo Guitar
  • Robert Friedrich Engineer
  • Desmond Jones Percussion
  • Jack Renner Engineer
  • Neil Tesser Liner Notes
  • Steve Turre Conch Shell, Trombone
  • Hassan J. J. Wiggins Bass
  • Rolando Wilson Drums
  • Robert Woods Producer
Отчёт EAC об извлечении, выполненном 10. декабря 2007, 0:13
Monty Alexander / Stir It Up - The Music of Bob Marley
Дисковод: PLEXTOR DVDR PX-760A Adapter: 0 ID: 0
Режим чтения : Достоверность
Использование точного потока : Да
Отключение кэша аудио : Да
Использование указателей C2 : Нет
Коррекция смещения при чтении : 30
Способность читать области Lead-in и Lead-out : Нет
Заполнение пропущенных сэмплов тишиной : Да
Удаление блоков с тишиной в начале и конце : Нет
При вычислениях CRC использовались нулевые сэмплы : Да
Интерфейс : Встроенный Win32-интерфейс для Win NT/2000
Выходной формат : Внутренние WAV-операции
Формат сэмплов : 44.100 Гц; 16 бит; стерео
TOC извлечённого CD
Трек | Старт | Длительность | Начальный сектор | Конечный сектор
---------------------------------------------------------------------
1 | 0:00.00 | 6:19.60 | 0 | 28484
2 | 6:19.60 | 4:26.55 | 28485 | 48489
3 | 10:46.40 | 5:25.05 | 48490 | 72869
4 | 16:11.45 | 4:04.20 | 72870 | 91189
5 | 20:15.65 | 6:43.17 | 91190 | 121431
6 | 26:59.07 | 5:18.58 | 121432 | 145339
7 | 32:17.65 | 4:57.47 | 145340 | 167661
8 | 37:15.37 | 6:13.35 | 167662 | 195671
9 | 43:28.72 | 6:09.60 | 195672 | 223406
10 | 49:38.57 | 6:25.63 | 223407 | 252344
11 | 56:04.45 | 6:53.37 | 252345 | 283356
12 | 62:58.07 | 3:00.08 | 283357 | 296864
13 | 65:58.15 | 5:42.62 | 296865 | 322576
Характеристики диапазона извлечения и сообщения об ошибках
Выбранный диапазон
Имя файла C:\Media\Monty Alexander - Stir It Up - The Music of Bob Marley.wav
Пиковый уровень 100.0 %
Качество диапазона 100.0 %
CRC копии 82F73414
Копирование... OK
Ошибок не произошло
Конец отчёта
01:22
35
RSS
Нет комментариев. Ваш будет первым!