Поиск

1999 Harry Allen - Day Dream {BMG} [CD]

1999 Harry Allen - Day Dream {BMG} [CD]
Стили:
Дата записи диска:
14 сентября и 17 сентября 1998
Место записи:
Nola Recording Studios, NYC
Издатель (лейбл):
Носитель:
CD
Тип рипа:
tracks+.cue
Аудиокодек:
FLAC (*.flac)
Битрейт аудио:
lossless
Время звучания:
01:01:52
Наличие сканов:
только обложка
Релизёр (источник):
poptrof

01. Sleepin' Bee  07:31
02. Maybe September  03:48
03. I'm Checking Out, Goombye!  05:54
04. A Child Is Born  06:39
05. Shibuya After Dark  05:38
06. The Midnight Sun Will Never Set  04:10
07. Three and One  06:11
08. Day Dream  05:09
09. Low Life  07:29
10. They Say It's Spring  04:50
11. The Christmas Song  04:27

 

Состав:
  • Bass – Peter Washington (tracks: 1, 3, 5, 7, 9)
  • Drums – Lewis Nash (tracks: 1, 3, 5, 7, 9)
  • Engineer [Assistant] – Bill Moss (2)
  • Liner Notes [Japanese] – 村田文一
  • Mastered By – Hiromichi Takiguchi
  • Piano – Tommy Flanagan
  • Producer – Ikuyoshi Hirakawa
  • Recorded By – Jim Czak
  • Tenor Saxophone, Producer – Harry Allen
Лог создания рипа
Exact Audio Copy V1.3 from 2. September 2016
EAC extraction logfile from 23. October 2018, 19:43
Harry Allen / Day Dream
Used drive  : Optiarc DVD RW AD-7243S   Adapter: 1  ID: 0
Read mode               : Secure
Utilize accurate stream : Yes
Defeat audio cache      : Yes
Make use of C2 pointers : No
Read offset correction                      : 48
Overread into Lead-In and Lead-Out          : No
Fill up missing offset samples with silence : Yes
Delete leading and trailing silent blocks   : No
Null samples used in CRC calculations       : Yes
Used interface                              : Native Win32 interface for Win NT & 2000
Gap handling                                : Not detected, thus appended to previous track
Used output format              : User Defined Encoder
Selected bitrate                : 112 kBit/s
Quality                         : High
Add ID3 tag                     : No
Command line compressor         : C:\Program Files (x86)\Exact Audio Copy\Flac\flac.exe
Additional command line options : -T "artist=%artist%" -T "title=%title%" -T "album=%albumtitle%" -T "date=%year%" -T "tracknumber=%tracknr%" -T "genre=%genre%" -5 %source%
TOC of the extracted CD
     Track |   Start  |  Length  | Start sector | End sector
    ---------------------------------------------------------
        1  |  0:00.00 |  7:31.40 |         0    |    33864
        2  |  7:31.40 |  3:48.47 |     33865    |    51011
        3  | 11:20.12 |  5:54.30 |     51012    |    77591
        4  | 17:14.42 |  6:39.68 |     77592    |   107584
        5  | 23:54.35 |  5:38.32 |    107585    |   132966
        6  | 29:32.67 |  4:10.68 |    132967    |   151784
        7  | 33:43.60 |  6:11.57 |    151785    |   179666
        8  | 39:55.42 |  5:09.48 |    179667    |   202889
        9  | 45:05.15 |  7:29.07 |    202890    |   236571
       10  | 52:34.22 |  4:50.48 |    236572    |   258369
       11  | 57:24.70 |  4:27.30 |    258370    |   278424
Track  1
     Filename H:\sax\Новая папка\EAC\Day Dream\01 A Sleepin' Bee.wav
     Peak level 97.9 %
     Extraction speed 2.5 X
     Track quality 99.9 %
     Test CRC AC178904
     Copy CRC AC178904
     Copy OK
Track  2
     Filename H:\sax\Новая папка\EAC\Day Dream\02 Maybe September.wav
     Peak level 97.9 %
     Extraction speed 2.8 X
     Track quality 100.0 %
     Test CRC 8D5764F1
     Copy CRC 8D5764F1
     Copy OK
Track  3
     Filename H:\sax\Новая папка\EAC\Day Dream\03 I'm Checking out, Goodbye.wav
     Peak level 97.9 %
     Extraction speed 3.3 X
     Track quality 100.0 %
     Test CRC 1428033F
     Copy CRC 1428033F
     Copy OK
Track  4
     Filename H:\sax\Новая папка\EAC\Day Dream\04 A Child Is Born.wav
     Peak level 97.9 %
     Extraction speed 3.6 X
     Track quality 100.0 %
     Test CRC 857B9087
     Copy CRC 857B9087
     Copy OK
Track  5
     Filename H:\sax\Новая папка\EAC\Day Dream\05 Shibuya After Dark.wav
     Peak level 97.9 %
     Extraction speed 3.9 X
     Track quality 100.0 %
     Test CRC 2AFB5082
     Copy CRC 2AFB5082
     Copy OK
Track  6
     Filename H:\sax\Новая папка\EAC\Day Dream\06 The Midnight Sun Will Never Sets.wav
     Peak level 97.9 %
     Extraction speed 3.9 X
     Track quality 100.0 %
     Test CRC F6FAC141
     Copy CRC F6FAC141
     Copy OK
Track  7
     Filename H:\sax\Новая папка\EAC\Day Dream\07 Three and One.wav
     Peak level 97.9 %
     Extraction speed 4.3 X
     Track quality 100.0 %
     Test CRC B0A3E673
     Copy CRC B0A3E673
     Copy OK
Track  8
     Filename H:\sax\Новая папка\EAC\Day Dream\08 Day Dream.wav
     Peak level 97.9 %
     Extraction speed 4.5 X
     Track quality 100.0 %
     Test CRC 80833936
     Copy CRC 80833936
     Copy OK
Track  9
     Filename H:\sax\Новая папка\EAC\Day Dream\09 Low Life.wav
     Peak level 97.9 %
     Extraction speed 4.8 X
     Track quality 100.0 %
     Test CRC 537B9A3D
     Copy CRC 537B9A3D
     Copy OK
Track 10
     Filename H:\sax\Новая папка\EAC\Day Dream\10 They Say It's Spring.wav
     Peak level 97.9 %
     Extraction speed 4.9 X
     Track quality 100.0 %
     Test CRC 6C387F1C
     Copy CRC 6C387F1C
     Copy OK
Track 11
     Filename H:\sax\Новая папка\EAC\Day Dream\11 The Christmas Song.wav
     Peak level 97.9 %
     Extraction speed 5.0 X
     Track quality 100.0 %
     Test CRC 7619141E
     Copy CRC 7619141E
     Copy OK
No errors occurred
End of status report
---- CUETools DB Plugin V2.1.6
[CTDB TOCID: minyagZA5UHiTZF3InBwXMinYa8-] found
Submit result: already submitted
Track | CTDB Status
  1   | (9/9) Accurately ripped
  2   | (9/9) Accurately ripped
  3   | (9/9) Accurately ripped
  4   | (9/9) Accurately ripped
  5   | (9/9) Accurately ripped
  6   | (9/9) Accurately ripped
  7   | (9/9) Accurately ripped
  8   | (9/9) Accurately ripped
  9   | (9/9) Accurately ripped
 10   | (9/9) Accurately ripped
 11   | (9/9) Accurately ripped
==== Log checksum 05122E3894D2B2067A9FCBE4BE6A9F49EEA80813FAE233CD5D6E6685569BFFD3 ====
Приватный:
Нет (DHT включён)
Размер:
347.64 Мб (364,525,671 байт) » файлов: 16
Участники:
4 раздают, 1 качают (5 участников всего)
Внешние участники:
3 раздают, 1 качают (4 участников всего) [ Обновить ]
21:19
332
Нет комментариев. Ваш будет первым!