Поиск

1999 Gene Krupa - The Gene Krupa Story {Proper} [4CD]

1999 Gene Krupa - The Gene Krupa Story {Proper} [4CD]
Стили:
Треклист:
Gene Krupa - The Gene Krupa Story
Жанр: Big Band, Swing
Носитель: CD
Страна-производитель диска: Великобритания
Год издания: 1999
Издатель (лейбл): Proper Records
Номер по каталогу: P1101-4
Страна: США
Аудиокодек: FLAC (*.flac)
Тип рипа: tracks+.cue
Битрейт аудио: lossless
Продолжительность: 5:02:41
Источник (релизер): Sealinear (what)
Наличие сканов в содержимом раздачи: да
 
Review by Al Campbell
The Gene Krupa Story is a four-CD box set anthology containing 98 tracks with a 32 page booklet. The focus is on Krupa's role as a bandleader from the late '30s through the '50s of various size ensembles that included Anita O Day, Roy Eldridge, and Irene Daye, to name a few. Mid-price makes this Empire package attractive, but it might be best to start with a Verve or Columbia collection.
 
 
CD1 - Wire Brush Stomp {76:20}
01. I Hope Gabriel Likes My Music (3:07)
02. Swing Is Here (2:58)
03. Grandfather's Clock (2:47)
04. I Know That You Know (2:12)
05. Fare Thee Well, Annie Laurie (2:56)
06. Wire Brush Stomp (2:15)
07. Rhythm Jam (2:49)
08. Nagasaki (2:30)
09. Tutti-Frutti (2:25)
10. Jeepers Creepers (3:04)
11. Murdy Purdy (3:11)
12. Apurksody (2:55)
13. Do You Wanna Jump, Children? (2:36)
14. Quiet and Roll 'Em (2:56)
15. The Madam Swings It (3:04)
16. Jungle Madness (2:46)
17. Old Black Joe (2:20)
18. Sweetheart, Honey, Darlin' Dear (2:29)
19. Symphony in Riffs (2:55)
20. Drummin' Man (3:01)
21. Blue Rhythm Fantasy (5:46)
22. Boog It (3:25)
23. Tuxedo Junction (2:59)
24. No Name Jive (2:54)
25. The Sergent Was Shy (3:08)
26. Who? (2:52)
 
 
Лог создания рипа
X Lossless Decoder version 20131102 (145.0)
XLD extraction logfile from 2014-03-19 18:21:17 +0100
Gene Krupa / The Gene Krupa Story (CD1)
Used drive : TSSTcorp CDDVDW SE-S084D (revision TS00)
Media type : Pressed CD
Ripper mode             : XLD Secure Ripper
Disable audio cache     : OK for the drive with a cache less than 1375KiB
Make use of C2 pointers : NO
Read offset correction  : 6
Max retry count         : 20
Gap status              : Analyzed, Appended (except HTOA)
TOC of the extracted CD
     Track |   Start  |  Length  | Start sector | End sector
    ---------------------------------------------------------
        1  | 00:00:00 | 03:06:54 |         0    |    14003
        2  | 03:06:54 | 02:57:71 |     14004    |    27349
        3  | 06:04:50 | 02:47:31 |     27350    |    39905
        4  | 08:52:06 | 02:11:43 |     39906    |    49773
        5  | 11:03:49 | 02:55:59 |     49774    |    62957
        6  | 13:59:33 | 02:15:16 |     62958    |    73098
        7  | 16:14:49 | 02:48:65 |     73099    |    85763
        8  | 19:03:39 | 02:29:52 |     85764    |    96990
        9  | 21:33:16 | 02:25:29 |     96991    |   107894
       10  | 23:58:45 | 03:03:67 |    107895    |   121686
       11  | 27:02:37 | 03:11:26 |    121687    |   136037
       12  | 30:13:63 | 02:54:56 |    136038    |   149143
       13  | 33:08:44 | 02:35:54 |    149144    |   160822
       14  | 35:44:23 | 02:55:52 |    160823    |   173999
       15  | 38:40:00 | 03:03:74 |    174000    |   187798
       16  | 41:43:74 | 02:45:70 |    187799    |   200243
       17  | 44:29:69 | 02:19:41 |    200244    |   210709
       18  | 46:49:35 | 02:28:39 |    210710    |   221848
       19  | 49:17:74 | 02:55:05 |    221849    |   234978
       20  | 52:13:04 | 03:00:41 |    234979    |   248519
       21  | 55:13:45 | 05:46:23 |    248520    |   274492
       22  | 60:59:68 | 03:24:61 |    274493    |   289853
       23  | 64:24:54 | 02:58:54 |    289854    |   303257
       24  | 67:23:33 | 02:54:24 |    303258    |   316331
       25  | 70:17:57 | 03:08:14 |    316332    |   330445
       26  | 73:25:71 | 02:51:39 |    330446    |   343309
AccurateRip Summary (DiscID: 004412ab-05004c87-7911e11a)
    Track 01 : OK (v1+v2, confidence 14/14)
    Track 02 : OK (v1+v2, confidence 14/14)
    Track 03 : OK (v1+v2, confidence 14/14)
    Track 04 : OK (v1+v2, confidence 14/14)
    Track 05 : OK (v1+v2, confidence 14/14)
    Track 06 : OK (v1+v2, confidence 14/14)
    Track 07 : OK (v1+v2, confidence 14/14)
    Track 08 : OK (v1+v2, confidence 14/14)
    Track 09 : OK (v1+v2, confidence 14/14)
    Track 10 : OK (v1+v2, confidence 14/14)
    Track 11 : OK (v1+v2, confidence 14/14)
    Track 12 : OK (v1+v2, confidence 14/14)
    Track 13 : OK (v1+v2, confidence 14/14)
    Track 14 : OK (v1+v2, confidence 14/14)
    Track 15 : OK (v1+v2, confidence 14/14)
    Track 16 : OK (v1+v2, confidence 14/14)
    Track 17 : OK (v1+v2, confidence 14/14)
    Track 18 : OK (v1+v2, confidence 14/14)
    Track 19 : OK (v1+v2, confidence 14/14)
    Track 20 : OK (v1+v2, confidence 14/14)
    Track 21 : OK (v1+v2, confidence 14/14)
    Track 22 : OK (v1+v2, confidence 14/14)
    Track 23 : OK (v1+v2, confidence 14/14)
    Track 24 : OK (v1+v2, confidence 14/14)
    Track 25 : OK (v1+v2, confidence 12/12)
    Track 26 : OK (v1+v2, confidence 14/14)
        ->All tracks accurately ripped.
All Tracks
    Album gain               : -5.18 dB
    Peak                     : 0.953125
    Statistics
        Read error                           : 0
        Jitter error (maybe fixed)           : 0
        Retry sector count                   : 0
        Damaged sector count                 : 0
Track 01
    Filename : /Users/Zetent/Documents/CD Rips/Gene Krupa - The Gene Krupa Story (CD1) (2005) [FLAC]/01 I Hope Gabriel Likes My Music.flac
               /Users/Zetent/Documents/CD Rips/Gene Krupa - The Gene Krupa Story (CD1) (2005) [320]/01 I Hope Gabriel Likes My Music.mp3
               /Users/Zetent/Documents/CD Rips/Gene Krupa - The Gene Krupa Story (CD1) (2005) [V2]/01 I Hope Gabriel Likes My Music.mp3
               /Users/Zetent/Documents/CD Rips/Gene Krupa - The Gene Krupa Story (CD1) (2005) [V0]/01 I Hope Gabriel Likes My Music.mp3
    Pre-gap length : 00:02:00
    Track gain               : -4.72 dB
    Peak                     : 0.932343
    CRC32 hash (test run)    : 9BC1BBCC
    CRC32 hash               : 9BC1BBCC
    CRC32 hash (skip zero)   : CE587614
    AccurateRip v1 signature : 7185A672
    AccurateRip v2 signature : D3083BAB
        ->Accurately ripped (v1+v2, confidence 7+7/14)
    Statistics
        Read error                           : 0
        Jitter error (maybe fixed)           : 0
        Retry sector count                   : 0
        Damaged sector count                 : 0
Track 02
    Filename : /Users/Zetent/Documents/CD Rips/Gene Krupa - The Gene Krupa Story (CD1) (2005) [FLAC]/02 Swing Is Here.flac
               /Users/Zetent/Documents/CD Rips/Gene Krupa - The Gene Krupa Story (CD1) (2005) [320]/02 Swing Is Here.mp3
               /Users/Zetent/Documents/CD Rips/Gene Krupa - The Gene Krupa Story (CD1) (2005) [V2]/02 Swing Is Here.mp3
               /Users/Zetent/Documents/CD Rips/Gene Krupa - The Gene Krupa Story (CD1) (2005) [V0]/02 Swing Is Here.mp3
    Pre-gap length : 00:02:57
    Track gain               : -6.10 dB
    Peak                     : 0.943024
    CRC32 hash (test run)    : CB9141C6
    CRC32 hash               : CB9141C6
    CRC32 hash (skip zero)   : F0289CEF
    AccurateRip v1 signature : 83209074
    AccurateRip v2 signature : C4AC0784
        ->Accurately ripped (v1+v2, confidence 7+7/14)
    Statistics
        Read error                           : 0
        Jitter error (maybe fixed)           : 0
        Retry sector count                   : 0
        Damaged sector count                 : 0
Track 03
    Filename : /Users/Zetent/Documents/CD Rips/Gene Krupa - The Gene Krupa Story (CD1) (2005) [FLAC]/03 Grandfather's Clock.flac
               /Users/Zetent/Documents/CD Rips/Gene Krupa - The Gene Krupa Story (CD1) (2005) [320]/03 Grandfather's Clock.mp3
               /Users/Zetent/Documents/CD Rips/Gene Krupa - The Gene Krupa Story (CD1) (2005) [V2]/03 Grandfather's Clock.mp3
               /Users/Zetent/Documents/CD Rips/Gene Krupa - The Gene Krupa Story (CD1) (2005) [V0]/03 Grandfather's Clock.mp3
    Pre-gap length : 00:02:58
    Track gain               : -3.40 dB
    Peak                     : 0.943176
    CRC32 hash (test run)    : A8EC78F6
    CRC32 hash               : A8EC78F6
    CRC32 hash (skip zero)   : 542F84CD
    AccurateRip v1 signature : 99FFC90C
    AccurateRip v2 signature : AD2E6BC5
        ->Accurately ripped (v1+v2, confidence 7+7/14)
    Statistics
        Read error                           : 0
        Jitter error (maybe fixed)           : 0
        Retry sector count                   : 0
        Damaged sector count                 : 0
Track 04
    Filename : /Users/Zetent/Documents/CD Rips/Gene Krupa - The Gene Krupa Story (CD1) (2005) [FLAC]/04 I Know That You Know.flac
               /Users/Zetent/Documents/CD Rips/Gene Krupa - The Gene Krupa Story (CD1) (2005) [320]/04 I Know That You Know.mp3
               /Users/Zetent/Documents/CD Rips/Gene Krupa - The Gene Krupa Story (CD1) (2005) [V2]/04 I Know That You Know.mp3
               /Users/Zetent/Documents/CD Rips/Gene Krupa - The Gene Krupa Story (CD1) (2005) [V0]/04 I Know That You Know.mp3
    Pre-gap length : 00:02:59
    Track gain               : -4.45 dB
    Peak                     : 0.943146
    CRC32 hash (test run)    : 3727F023
    CRC32 hash               : 3727F023
    CRC32 hash (skip zero)   : AD4CBC6F
    AccurateRip v1 signature : 4BB4C966
    AccurateRip v2 signature : 06ECF5F4
        ->Accurately ripped (v1+v2, confidence 7+7/14)
    Statistics
        Read error                           : 0
        Jitter error (maybe fixed)           : 0
        Retry sector count                   : 0
        Damaged sector count                 : 0
Track 05
    Filename : /Users/Zetent/Documents/CD Rips/Gene Krupa - The Gene Krupa Story (CD1) (2005) [FLAC]/05 Fare Thee Well, Annie Laurie.flac
               /Users/Zetent/Documents/CD Rips/Gene Krupa - The Gene Krupa Story (CD1) (2005) [320]/05 Fare Thee Well, Annie Laurie.mp3
               /Users/Zetent/Documents/CD Rips/Gene Krupa - The Gene Krupa Story (CD1) (2005) [V2]/05 Fare Thee Well, Annie Laurie.mp3
               /Users/Zetent/Documents/CD Rips/Gene Krupa - The Gene Krupa Story (CD1) (2005) [V0]/05 Fare Thee Well, Annie Laurie.mp3
    Pre-gap length : 00:02:58
    Track gain               : -3.14 dB
    Peak                     : 0.942993
    CRC32 hash (test run)    : C03D7AB1
    CRC32 hash               : C03D7AB1
    CRC32 hash (skip zero)   : A55856D4
    AccurateRip v1 signature : 3200EB8D
    AccurateRip v2 signature : DB92D828
        ->Accurately ripped (v1+v2, confidence 7+7/14)
    Statistics
        Read error                           : 0
        Jitter error (maybe fixed)           : 0
        Retry sector count                   : 0
        Damaged sector count                 : 0
Track 06
    Filename : /Users/Zetent/Documents/CD Rips/Gene Krupa - The Gene Krupa Story (CD1) (2005) [FLAC]/06 Wire Brush Stomp.flac
               /Users/Zetent/Documents/CD Rips/Gene Krupa - The Gene Krupa Story (CD1) (2005) [320]/06 Wire Brush Stomp.mp3
               /Users/Zetent/Documents/CD Rips/Gene Krupa - The Gene Krupa Story (CD1) (2005) [V2]/06 Wire Brush Stomp.mp3
               /Users/Zetent/Documents/CD Rips/Gene Krupa - The Gene Krupa Story (CD1) (2005) [V0]/06 Wire Brush Stomp.mp3
    Pre-gap length : 00:02:58
    Track gain               : -2.05 dB
    Peak                     : 0.943420
    CRC32 hash (test run)    : 06FBB1CF
    CRC32 hash               : 06FBB1CF
    CRC32 hash (skip zero)   : 6109CE68
    AccurateRip v1 signature : 7DF36D56
    AccurateRip v2 signature : 906131CE
        ->Accurately ripped (v1+v2, confidence 7+7/14)
    Statistics
        Read error                           : 0
        Jitter error (maybe fixed)           : 0
        Retry sector count                   : 0
        Damaged sector count                 : 0
Track 07
    Filename : /Users/Zetent/Documents/CD Rips/Gene Krupa - The Gene Krupa Story (CD1) (2005) [FLAC]/07 Rhythm Jam.flac
               /Users/Zetent/Documents/CD Rips/Gene Krupa - The Gene Krupa Story (CD1) (2005) [320]/07 Rhythm Jam.mp3
               /Users/Zetent/Documents/CD Rips/Gene Krupa - The Gene Krupa Story (CD1) (2005) [V2]/07 Rhythm Jam.mp3
               /Users/Zetent/Documents/CD Rips/Gene Krupa - The Gene Krupa Story (CD1) (2005) [V0]/07 Rhythm Jam.mp3
    Pre-gap length : 00:02:58
    Track gain               : -6.21 dB
    Peak                     : 0.942719
    CRC32 hash (test run)    : 0FB5B97B
    CRC32 hash               : 0FB5B97B
    CRC32 hash (skip zero)   : 7A82FF48
    AccurateRip v1 signature : AE16F645
    AccurateRip v2 signature : A09DDF97
        ->Accurately ripped (v1+v2, confidence 7+7/14)
    Statistics
        Read error                           : 0
        Jitter error (maybe fixed)           : 0
        Retry sector count                   : 0
        Damaged sector count                 : 0
Track 08
    Filename : /Users/Zetent/Documents/CD Rips/Gene Krupa - The Gene Krupa Story (CD1) (2005) [FLAC]/08 Nagasaki.flac
               /Users/Zetent/Documents/CD Rips/Gene Krupa - The Gene Krupa Story (CD1) (2005) [320]/08 Nagasaki.mp3
               /Users/Zetent/Documents/CD Rips/Gene Krupa - The Gene Krupa Story (CD1) (2005) [V2]/08 Nagasaki.mp3
               /Users/Zetent/Documents/CD Rips/Gene Krupa - The Gene Krupa Story (CD1) (2005) [V0]/08 Nagasaki.mp3
    Pre-gap length : 00:02:58
    Track gain               : -3.38 dB
    Peak                     : 0.953125
    CRC32 hash (test run)    : DEA7E50C
    CRC32 hash               : DEA7E50C
    CRC32 hash (skip zero)   : 18E8B2AF
    AccurateRip v1 signature : EA5F3682
    AccurateRip v2 signature : B7965B8E
        ->Accurately ripped (v1+v2, confidence 7+7/14)
    Statistics
        Read error                           : 0
        Jitter error (maybe fixed)           : 0
        Retry sector count                   : 0
        Damaged sector count                 : 0
Track 09
    Filename : /Users/Zetent/Documents/CD Rips/Gene Krupa - The Gene Krupa Story (CD1) (2005) [FLAC]/09 Tutti-Frutti.flac
               /Users/Zetent/Documents/CD Rips/Gene Krupa - The Gene Krupa Story (CD1) (2005) [320]/09 Tutti-Frutti.mp3
               /Users/Zetent/Documents/CD Rips/Gene Krupa - The Gene Krupa Story (CD1) (2005) [V2]/09 Tutti-Frutti.mp3
               /Users/Zetent/Documents/CD Rips/Gene Krupa - The Gene Krupa Story (CD1) (2005) [V0]/09 Tutti-Frutti.mp3
    Pre-gap length : 00:02:58
    Track gain               : -5.65 dB
    Peak                     : 0.943237
    CRC32 hash (test run)    : 71134445
    CRC32 hash               : 71134445
    CRC32 hash (skip zero)   : 72BD1994
    AccurateRip v1 signature : CF766CA0
    AccurateRip v2 signature : 9134AB61
        ->Accurately ripped (v1+v2, confidence 7+7/14)
    Statistics
        Read error                           : 0
        Jitter error (maybe fixed)           : 0
        Retry sector count                   : 0
        Damaged sector count                 : 0
Track 10
    Filename : /Users/Zetent/Documents/CD Rips/Gene Krupa - The Gene Krupa Story (CD1) (2005) [FLAC]/10 Jeepers Creepers.flac
               /Users/Zetent/Documents/CD Rips/Gene Krupa - The Gene Krupa Story (CD1) (2005) [320]/10 Jeepers Creepers.mp3
               /Users/Zetent/Documents/CD Rips/Gene Krupa - The Gene Krupa Story (CD1) (2005) [V2]/10 Jeepers Creepers.mp3
               /Users/Zetent/Documents/CD Rips/Gene Krupa - The Gene Krupa Story (CD1) (2005) [V0]/10 Jeepers Creepers.mp3
    Pre-gap length : 00:02:57
    Track gain               : -5.35 dB
    Peak                     : 0.942749
    CRC32 hash (test run)    : 556161B6
    CRC32 hash               : 556161B6
    CRC32 hash (skip zero)   : 7025E959
    AccurateRip v1 signature : 99D7F2F4
    AccurateRip v2 signature : F16B4062
        ->Accurately ripped (v1+v2, confidence 7+7/14)
    Statistics
        Read error                           : 0
        Jitter error (maybe fixed)           : 0
        Retry sector count                   : 0
        Damaged sector count                 : 0
Track 11
    Filename : /Users/Zetent/Documents/CD Rips/Gene Krupa - The Gene Krupa Story (CD1) (2005) [FLAC]/11 Murdy Purdy.flac
               /Users/Zetent/Documents/CD Rips/Gene Krupa - The Gene Krupa Story (CD1) (2005) [320]/11 Murdy Purdy.mp3
               /Users/Zetent/Documents/CD Rips/Gene Krupa - The Gene Krupa Story (CD1) (2005) [V2]/11 Murdy Purdy.mp3
               /Users/Zetent/Documents/CD Rips/Gene Krupa - The Gene Krupa Story (CD1) (2005) [V0]/11 Murdy Purdy.mp3
    Pre-gap length : 00:02:58
    Track gain               : -4.09 dB
    Peak                     : 0.943054
    CRC32 hash (test run)    : 71905A66
    CRC32 hash               : 71905A66
    CRC32 hash (skip zero)   : 1B504B5D
    AccurateRip v1 signature : 2D61D47D
    AccurateRip v2 signature : B25F83CD
        ->Accurately ripped (v1+v2, confidence 7+7/14)
    Statistics
        Read error                           : 0
        Jitter error (maybe fixed)           : 0
        Retry sector count                   : 0
        Damaged sector count                 : 0
Track 12
    Filename : /Users/Zetent/Documents/CD Rips/Gene Krupa - The Gene Krupa Story (CD1) (2005) [FLAC]/12 Apurksody.flac
               /Users/Zetent/Documents/CD Rips/Gene Krupa - The Gene Krupa Story (CD1) (2005) [320]/12 Apurksody.mp3
               /Users/Zetent/Documents/CD Rips/Gene Krupa - The Gene Krupa Story (CD1) (2005) [V2]/12 Apurksody.mp3
               /Users/Zetent/Documents/CD Rips/Gene Krupa - The Gene Krupa Story (CD1) (2005) [V0]/12 Apurksody.mp3
    Pre-gap length : 00:02:58
    Track gain               : -6.92 dB
    Peak                     : 0.931946
    CRC32 hash (test run)    : 75FCBCA4
    CRC32 hash               : 75FCBCA4
    CRC32 hash (skip zero)   : D6E391F6
    AccurateRip v1 signature : 523EC03C
    AccurateRip v2 signature : A055DCD1
        ->Accurately ripped (v1+v2, confidence 7+7/14)
    Statistics
        Read error                           : 0
        Jitter error (maybe fixed)           : 0
        Retry sector count                   : 0
        Damaged sector count                 : 0
Track 13
    Filename : /Users/Zetent/Documents/CD Rips/Gene Krupa - The Gene Krupa Story (CD1) (2005) [FLAC]/13 Do You Wanna Jump, Children.flac
               /Users/Zetent/Documents/CD Rips/Gene Krupa - The Gene Krupa Story (CD1) (2005) [320]/13 Do You Wanna Jump, Children.mp3
               /Users/Zetent/Documents/CD Rips/Gene Krupa - The Gene Krupa Story (CD1) (2005) [V2]/13 Do You Wanna Jump, Children.mp3
               /Users/Zetent/Documents/CD Rips/Gene Krupa - The Gene Krupa Story (CD1) (2005) [V0]/13 Do You Wanna Jump, Children.mp3
    Pre-gap length : 00:02:58
    Track gain               : -2.52 dB
    Peak                     : 0.943542
    CRC32 hash (test run)    : 159DFD34
    CRC32 hash               : 159DFD34
    CRC32 hash (skip zero)   : 49650393
    AccurateRip v1 signature : 912D3F26
    AccurateRip v2 signature : C3FBB4BA
        ->Accurately ripped (v1+v2, confidence 7+7/14)
    Statistics
        Read error                           : 0
        Jitter error (maybe fixed)           : 0
        Retry sector count                   : 0
        Damaged sector count                 : 0
Track 14
    Filename : /Users/Zetent/Documents/CD Rips/Gene Krupa - The Gene Krupa Story (CD1) (2005) [FLAC]/14 Quiet And Roll 'Em.flac
               /Users/Zetent/Documents/CD Rips/Gene Krupa - The Gene Krupa Story (CD1) (2005) [320]/14 Quiet And Roll 'Em.mp3
               /Users/Zetent/Documents/CD Rips/Gene Krupa - The Gene Krupa Story (CD1) (2005) [V2]/14 Quiet And Roll 'Em.mp3
               /Users/Zetent/Documents/CD Rips/Gene Krupa - The Gene Krupa Story (CD1) (2005) [V0]/14 Quiet And Roll 'Em.mp3
    Pre-gap length : 00:02:58
    Track gain               : -4.53 dB
    Peak                     : 0.942657
    CRC32 hash (test run)    : 66C09035
    CRC32 hash               : 66C09035
    CRC32 hash (skip zero)   : B92DF06C
    AccurateRip v1 signature : AB24BE11
    AccurateRip v2 signature : 8E166F61
        ->Accurately ripped (v1+v2, confidence 7+7/14)
    Statistics
        Read error                           : 0
        Jitter error (maybe fixed)           : 0
        Retry sector count                   : 0
        Damaged sector count                 : 0
Track 15
    Filename : /Users/Zetent/Documents/CD Rips/Gene Krupa - The Gene Krupa Story (CD1) (2005) [FLAC]/15 The Madam Swimgs It.flac
               /Users/Zetent/Documents/CD Rips/Gene Krupa - The Gene Krupa Story (CD1) (2005) [320]/15 The Madam Swimgs It.mp3
               /Users/Zetent/Documents/CD Rips/Gene Krupa - The Gene Krupa Story (CD1) (2005) [V2]/15 The Madam Swimgs It.mp3
               /Users/Zetent/Documents/CD Rips/Gene Krupa - The Gene Krupa Story (CD1) (2005) [V0]/15 The Madam Swimgs It.mp3
    Pre-gap length : 00:02:59
    Track gain               : -3.06 dB
    Peak                     : 0.942657
    CRC32 hash (test run)    : A222376C
    CRC32 hash               : A222376C
    CRC32 hash (skip zero)   : 5A959840
    AccurateRip v1 signature : E3A10F13
    AccurateRip v2 signature : 7F18B1EF
        ->Accurately ripped (v1+v2, confidence 7+7/14)
    Statistics
        Read error                           : 0
        Jitter error (maybe fixed)           : 0
        Retry sector count                   : 0
        Damaged sector count                 : 0
Track 16
    Filename : /Users/Zetent/Documents/CD Rips/Gene Krupa - The Gene Krupa Story (CD1) (2005) [FLAC]/16 Jungle Madness.flac
               /Users/Zetent/Documents/CD Rips/Gene Krupa - The Gene Krupa Story (CD1) (2005) [320]/16 Jungle Madness.mp3
               /Users/Zetent/Documents/CD Rips/Gene Krupa - The Gene Krupa Story (CD1) (2005) [V2]/16 Jungle Madness.mp3
               /Users/Zetent/Documents/CD Rips/Gene Krupa - The Gene Krupa Story (CD1) (2005) [V0]/16 Jungle Madness.mp3
    Pre-gap length : 00:02:58
    Track gain               : -5.90 dB
    Peak                     : 0.942352
    CRC32 hash (test run)    : EEAAC475
    CRC32 hash               : EEAAC475
    CRC32 hash (skip zero)   : CF5A26EE
    AccurateRip v1 signature : 3C058B16
    AccurateRip v2 signature : 5FDB9EE8
        ->Accurately ripped (v1+v2, confidence 7+7/14)
    Statistics
        Read error                           : 0
        Jitter error (maybe fixed)           : 0
        Retry sector count                   : 0
        Damaged sector count                 : 0
Track 17
    Filename : /Users/Zetent/Documents/CD Rips/Gene Krupa - The Gene Krupa Story (CD1) (2005) [FLAC]/17 Old Black Joe.flac
               /Users/Zetent/Documents/CD Rips/Gene Krupa - The Gene Krupa Story (CD1) (2005) [320]/17 Old Black Joe.mp3
               /Users/Zetent/Documents/CD Rips/Gene Krupa - The Gene Krupa Story (CD1) (2005) [V2]/17 Old Black Joe.mp3
               /Users/Zetent/Documents/CD Rips/Gene Krupa - The Gene Krupa Story (CD1) (2005) [V0]/17 Old Black Joe.mp3
    Pre-gap length : 00:02:58
    Track gain               : -7.20 dB
    Peak                     : 0.942566
    CRC32 hash (test run)    : 27CB5202
    CRC32 hash               : 27CB5202
    CRC32 hash (skip zero)   : F78695EA
    AccurateRip v1 signature : 72A8E7F0
    AccurateRip v2 signature : 2A8F480B
        ->Accurately ripped (v1+v2, confidence 7+7/14)
    Statistics
        Read error                           : 0
        Jitter error (maybe fixed)           : 0
        Retry sector count                   : 0
        Damaged sector count                 : 0
Track 18
    Filename : /Users/Zetent/Documents/CD Rips/Gene Krupa - The Gene Krupa Story (CD1) (2005) [FLAC]/18 Sweetheart, Honey, Darlin' Dear.flac
               /Users/Zetent/Documents/CD Rips/Gene Krupa - The Gene Krupa Story (CD1) (2005) [320]/18 Sweetheart, Honey, Darlin' Dear.mp3
               /Users/Zetent/Documents/CD Rips/Gene Krupa - The Gene Krupa Story (CD1) (2005) [V2]/18 Sweetheart, Honey, Darlin' Dear.mp3
               /Users/Zetent/Documents/CD Rips/Gene Krupa - The Gene Krupa Story (CD1) (2005) [V0]/18 Sweetheart, Honey, Darlin' Dear.mp3
    Pre-gap length : 00:02:58
    Track gain               : -6.55 dB
    Peak                     : 0.943390
    CRC32 hash (test run)    : 12E26AB3
    CRC32 hash               : 12E26AB3
    CRC32 hash (skip zero)   : DFEE27DE
    AccurateRip v1 signature : 5A813F03
    AccurateRip v2 signature : EA5C1173
        ->Accurately ripped (v1+v2, confidence 7+7/14)
    Statistics
        Read error                           : 0
        Jitter error (maybe fixed)           : 0
        Retry sector count                   : 0
        Damaged sector count                 : 0
Track 19
    Filename : /Users/Zetent/Documents/CD Rips/Gene Krupa - The Gene Krupa Story (CD1) (2005) [FLAC]/19 Symphony In Riffs.flac
               /Users/Zetent/Documents/CD Rips/Gene Krupa - The Gene Krupa Story (CD1) (2005) [320]/19 Symphony In Riffs.mp3
               /Users/Zetent/Documents/CD Rips/Gene Krupa - The Gene Krupa Story (CD1) (2005) [V2]/19 Symphony In Riffs.mp3
               /Users/Zetent/Documents/CD Rips/Gene Krupa - The Gene Krupa Story (CD1) (2005) [V0]/19 Symphony In Riffs.mp3
    Pre-gap length : 00:02:58
    Track gain               : -2.02 dB
    Peak                     : 0.942902
    CRC32 hash (test run)    : 82215823
    CRC32 hash               : 82215823
    CRC32 hash (skip zero)   : 6497DBC3
    AccurateRip v1 signature : F35ADCB5
    AccurateRip v2 signature : 0C275DE3
        ->Accurately ripped (v1+v2, confidence 7+7/14)
    Statistics
        Read error                           : 0
        Jitter error (maybe fixed)           : 0
        Retry sector count                   : 0
        Damaged sector count                 : 0
Track 20
    Filename : /Users/Zetent/Documents/CD Rips/Gene Krupa - The Gene Krupa Story (CD1) (2005) [FLAC]/20 Drummin' Man.flac
               /Users/Zetent/Documents/CD Rips/Gene Krupa - The Gene Krupa Story (CD1) (2005) [320]/20 Drummin' Man.mp3
               /Users/Zetent/Documents/CD Rips/Gene Krupa - The Gene Krupa Story (CD1) (2005) [V2]/20 Drummin' Man.mp3
               /Users/Zetent/Documents/CD Rips/Gene Krupa - The Gene Krupa Story (CD1) (2005) [V0]/20 Drummin' Man.mp3
    Pre-gap length : 00:02:58
    Track gain               : -5.20 dB
    Peak                     : 0.942596
    CRC32 hash (test run)    : ED9B3B1A
    CRC32 hash               : ED9B3B1A
    CRC32 hash (skip zero)   : C07AF7C9
    AccurateRip v1 signature : 6AC25B36
    AccurateRip v2 signature : B36A2D0B
        ->Accurately ripped (v1+v2, confidence 7+7/14)
    Statistics
        Read error                           : 0
        Jitter error (maybe fixed)           : 0
        Retry sector count                   : 0
        Damaged sector count                 : 0
Track 21
    Filename : /Users/Zetent/Documents/CD Rips/Gene Krupa - The Gene Krupa Story (CD1) (2005) [FLAC]/21 Blue Rhythm Fantasy.flac
               /Users/Zetent/Documents/CD Rips/Gene Krupa - The Gene Krupa Story (CD1) (2005) [320]/21 Blue Rhythm Fantasy.mp3
               /Users/Zetent/Documents/CD Rips/Gene Krupa - The Gene Krupa Story (CD1) (2005) [V2]/21 Blue Rhythm Fantasy.mp3
               /Users/Zetent/Documents/CD Rips/Gene Krupa - The Gene Krupa Story (CD1) (2005) [V0]/21 Blue Rhythm Fantasy.mp3
    Pre-gap length : 00:02:58
    Track gain               : -1.15 dB
    Peak                     : 0.932251
    CRC32 hash (test run)    : BF988251
    CRC32 hash               : BF988251
    CRC32 hash (skip zero)   : 616AA0D7
    AccurateRip v1 signature : 59AC3141
    AccurateRip v2 signature : C7F42493
        ->Accurately ripped (v1+v2, confidence 7+7/14)
    Statistics
        Read error                           : 0
        Jitter error (maybe fixed)           : 0
        Retry sector count                   : 0
        Damaged sector count                 : 0
Track 22
    Filename : /Users/Zetent/Documents/CD Rips/Gene Krupa - The Gene Krupa Story (CD1) (2005) [FLAC]/22 Boog It.flac
               /Users/Zetent/Documents/CD Rips/Gene Krupa - The Gene Krupa Story (CD1) (2005) [320]/22 Boog It.mp3
               /Users/Zetent/Documents/CD Rips/Gene Krupa - The Gene Krupa Story (CD1) (2005) [V2]/22 Boog It.mp3
               /Users/Zetent/Documents/CD Rips/Gene Krupa - The Gene Krupa Story (CD1) (2005) [V0]/22 Boog It.mp3
    Pre-gap length : 00:02:58
    Track gain               : -1.33 dB
    Peak                     : 0.943451
    CRC32 hash (test run)    : 92451081
    CRC32 hash               : 92451081
    CRC32 hash (skip zero)   : 4BF95F6F
    AccurateRip v1 signature : 558A7F3C
    AccurateRip v2 signature : F91B243A
        ->Accurately ripped (v1+v2, confidence 7+7/14)
    Statistics
        Read error                           : 0
        Jitter error (maybe fixed)           : 0
        Retry sector count                   : 0
        Damaged sector count                 : 0
Track 23
    Filename : /Users/Zetent/Documents/CD Rips/Gene Krupa - The Gene Krupa Story (CD1) (2005) [FLAC]/23 Tuxedo Junction.flac
               /Users/Zetent/Documents/CD Rips/Gene Krupa - The Gene Krupa Story (CD1) (2005) [320]/23 Tuxedo Junction.mp3
               /Users/Zetent/Documents/CD Rips/Gene Krupa - The Gene Krupa Story (CD1) (2005) [V2]/23 Tuxedo Junction.mp3
               /Users/Zetent/Documents/CD Rips/Gene Krupa - The Gene Krupa Story (CD1) (2005) [V0]/23 Tuxedo Junction.mp3
    Pre-gap length : 00:02:58
    Track gain               : -3.10 dB
    Peak                     : 0.943207
    CRC32 hash (test run)    : 70426DDC
    CRC32 hash               : 70426DDC
    CRC32 hash (skip zero)   : 9C6F2D72
    AccurateRip v1 signature : 31061BF5
    AccurateRip v2 signature : D4CFB8F1
        ->Accurately ripped (v1+v2, confidence 7+7/14)
    Statistics
        Read error                           : 0
        Jitter error (maybe fixed)           : 0
        Retry sector count                   : 0
        Damaged sector count                 : 0
Track 24
    Filename : /Users/Zetent/Documents/CD Rips/Gene Krupa - The Gene Krupa Story (CD1) (2005) [FLAC]/24 No Name Jive.flac
               /Users/Zetent/Documents/CD Rips/Gene Krupa - The Gene Krupa Story (CD1) (2005) [320]/24 No Name Jive.mp3
               /Users/Zetent/Documents/CD Rips/Gene Krupa - The Gene Krupa Story (CD1) (2005) [V2]/24 No Name Jive.mp3
               /Users/Zetent/Documents/CD Rips/Gene Krupa - The Gene Krupa Story (CD1) (2005) [V0]/24 No Name Jive.mp3
    Pre-gap length : 00:02:58
    Track gain               : -3.31 dB
    Peak                     : 0.943024
    CRC32 hash (test run)    : DB696E37
    CRC32 hash               : DB696E37
    CRC32 hash (skip zero)   : 4F49569A
    AccurateRip v1 signature : 440A5D52
    AccurateRip v2 signature : 3BB394BB
        ->Accurately ripped (v1+v2, confidence 7+7/14)
    Statistics
        Read error                           : 0
        Jitter error (maybe fixed)           : 0
        Retry sector count                   : 0
        Damaged sector count                 : 0
Track 25
    Filename : /Users/Zetent/Documents/CD Rips/Gene Krupa - The Gene Krupa Story (CD1) (2005) [FLAC]/25 The Sergent Was Shy.flac
               /Users/Zetent/Documents/CD Rips/Gene Krupa - The Gene Krupa Story (CD1) (2005) [320]/25 The Sergent Was Shy.mp3
               /Users/Zetent/Documents/CD Rips/Gene Krupa - The Gene Krupa Story (CD1) (2005) [V2]/25 The Sergent Was Shy.mp3
               /Users/Zetent/Documents/CD Rips/Gene Krupa - The Gene Krupa Story (CD1) (2005) [V0]/25 The Sergent Was Shy.mp3
    Pre-gap length : 00:02:58
    Track gain               : -5.70 dB
    Peak                     : 0.943176
    CRC32 hash (test run)    : 81CEF8EE
    CRC32 hash               : 81CEF8EE
    CRC32 hash (skip zero)   : B493D28E
    AccurateRip v1 signature : 2A28997A
    AccurateRip v2 signature : CBB07666
        ->Accurately ripped (v1+v2, confidence 6+6/12)
    Statistics
        Read error                           : 0
        Jitter error (maybe fixed)           : 0
        Retry sector count                   : 0
        Damaged sector count                 : 0
Track 26
    Filename : /Users/Zetent/Documents/CD Rips/Gene Krupa - The Gene Krupa Story (CD1) (2005) [FLAC]/26 Who.flac
               /Users/Zetent/Documents/CD Rips/Gene Krupa - The Gene Krupa Story (CD1) (2005) [320]/26 Who.mp3
               /Users/Zetent/Documents/CD Rips/Gene Krupa - The Gene Krupa Story (CD1) (2005) [V2]/26 Who.mp3
               /Users/Zetent/Documents/CD Rips/Gene Krupa - The Gene Krupa Story (CD1) (2005) [V0]/26 Who.mp3
    Pre-gap length : 00:02:58
    Track gain               : -5.88 dB
    Peak                     : 0.942505
    CRC32 hash (test run)    : 6700A5EC
    CRC32 hash               : 6700A5EC
    CRC32 hash (skip zero)   : 21001080
    AccurateRip v1 signature : 64A95973
    AccurateRip v2 signature : 29254F14
        ->Accurately ripped (v1+v2, confidence 7+7/14)
    Statistics
        Read error                           : 0
        Jitter error (maybe fixed)           : 0
        Retry sector count                   : 0
        Damaged sector count                 : 0
No errors occurred
End of status report
-----BEGIN XLD SIGNATURE-----
xg6tUW4.kZbMja6waBkU9Hp4S8GUYaHnGYG0lw_1PYk7faLxffJBTrAFUTch5aea7YYtAEZG14CGvWj2sceMb554lG8viLzMN9IWWHy
-----END XLD SIGNATURE-----
 
 
Содержание индексной карты (.CUE)
TITLE "The Gene Krupa Story CD1"
PERFORMER "Gene Krupa"
REM GENRE "Jazz"
REM DATE "1999"
REM DISCID 7911E11A
REM REPLAYGAIN_ALBUM_GAIN -5.18 dB
REM REPLAYGAIN_ALBUM_PEAK 0.953125
FILE "01 - I Hope Gabriel Likes My Music.flac" WAVE
  TRACK 01 AUDIO
    TITLE "I Hope Gabriel Likes My Music"
    REM REPLAYGAIN_TRACK_GAIN -4.72 dB
    REM REPLAYGAIN_TRACK_PEAK 0.932343
    INDEX 01 00:00:00
  TRACK 02 AUDIO
    TITLE "Swing Is Here"
    REM REPLAYGAIN_TRACK_GAIN -6.10 dB
    REM REPLAYGAIN_TRACK_PEAK 0.943024
    INDEX 00 03:03:72
FILE "02 - Swing Is Here.flac" WAVE
    INDEX 01 00:00:00
  TRACK 03 AUDIO
    TITLE "Grandfather's Clock"
    REM REPLAYGAIN_TRACK_GAIN -3.40 dB
    REM REPLAYGAIN_TRACK_PEAK 0.943176
    INDEX 00 02:55:13
FILE "03 - Grandfather's Clock.flac" WAVE
    INDEX 01 00:00:00
  TRACK 04 AUDIO
    TITLE "I Know That You Know"
    REM REPLAYGAIN_TRACK_GAIN -4.45 dB
    REM REPLAYGAIN_TRACK_PEAK 0.943146
    INDEX 00 02:44:47
FILE "04 - I Know That You Know.flac" WAVE
    INDEX 01 00:00:00
  TRACK 05 AUDIO
    TITLE "Fare Thee Well, Annie Laurie"
    REM REPLAYGAIN_TRACK_GAIN -3.14 dB
    REM REPLAYGAIN_TRACK_PEAK 0.942993
    INDEX 00 02:08:60
FILE "05 - Fare Thee Well, Annie Laurie.flac" WAVE
    INDEX 01 00:00:00
  TRACK 06 AUDIO
    TITLE "Wire Brush Stomp"
    REM REPLAYGAIN_TRACK_GAIN -2.05 dB
    REM REPLAYGAIN_TRACK_PEAK 0.943420
    INDEX 00 02:53:01
FILE "06 - Wire Brush Stomp.flac" WAVE
    INDEX 01 00:00:00
  TRACK 07 AUDIO
    TITLE "Rhythm Jam"
    REM REPLAYGAIN_TRACK_GAIN -6.21 dB
    REM REPLAYGAIN_TRACK_PEAK 0.942719
    INDEX 00 02:12:33
FILE "07 - Rhythm Jam.flac" WAVE
    INDEX 01 00:00:00
  TRACK 08 AUDIO
    TITLE "Nagasaki"
    REM REPLAYGAIN_TRACK_GAIN -3.38 dB
    REM REPLAYGAIN_TRACK_PEAK 0.953125
    INDEX 00 02:46:07
FILE "08 - Nagasaki.flac" WAVE
    INDEX 01 00:00:00
  TRACK 09 AUDIO
    TITLE "Tutti-Frutti"
    REM REPLAYGAIN_TRACK_GAIN -5.65 dB
    REM REPLAYGAIN_TRACK_PEAK 0.943237
    INDEX 00 02:26:69
FILE "09 - Tutti-Frutti.flac" WAVE
    INDEX 01 00:00:00
  TRACK 10 AUDIO
    TITLE "Jeepers Creepers"
    REM REPLAYGAIN_TRACK_GAIN -5.35 dB
    REM REPLAYGAIN_TRACK_PEAK 0.942749
    INDEX 00 02:22:47
FILE "10 - Jeepers Creepers.flac" WAVE
    INDEX 01 00:00:00
  TRACK 11 AUDIO
    TITLE "Murdy Purdy"
    REM REPLAYGAIN_TRACK_GAIN -4.09 dB
    REM REPLAYGAIN_TRACK_PEAK 0.943054
    INDEX 00 03:01:09
FILE "11 - Murdy Purdy.flac" WAVE
    INDEX 01 00:00:00
  TRACK 12 AUDIO
    TITLE "Apurksody"
    REM REPLAYGAIN_TRACK_GAIN -6.92 dB
    REM REPLAYGAIN_TRACK_PEAK 0.931946
    INDEX 00 03:08:43
FILE "12 - Apurksody.flac" WAVE
    INDEX 01 00:00:00
  TRACK 13 AUDIO
    TITLE "Do You Wanna Jump, Children?"
    REM REPLAYGAIN_TRACK_GAIN -2.52 dB
    REM REPLAYGAIN_TRACK_PEAK 0.943542
    INDEX 00 02:51:73
FILE "13 - Do You Wanna Jump, Children.flac" WAVE
    INDEX 01 00:00:00
  TRACK 14 AUDIO
    TITLE "Quiet and Roll 'Em"
    REM REPLAYGAIN_TRACK_GAIN -4.53 dB
    REM REPLAYGAIN_TRACK_PEAK 0.942657
    INDEX 00 02:32:71
FILE "14 - Quiet and Roll 'Em.flac" WAVE
    INDEX 01 00:00:00
  TRACK 15 AUDIO
    TITLE "The Madam Swings It"
    REM REPLAYGAIN_TRACK_GAIN -3.06 dB
    REM REPLAYGAIN_TRACK_PEAK 0.942657
    INDEX 00 02:52:68
FILE "15 - The Madam Swings It.flac" WAVE
    INDEX 01 00:00:00
  TRACK 16 AUDIO
    TITLE "Jungle Madness"
    REM REPLAYGAIN_TRACK_GAIN -5.90 dB
    REM REPLAYGAIN_TRACK_PEAK 0.942352
    INDEX 00 03:01:16
FILE "16 - Jungle Madness.flac" WAVE
    INDEX 01 00:00:00
  TRACK 17 AUDIO
    TITLE "Old Black Joe"
    REM REPLAYGAIN_TRACK_GAIN -7.20 dB
    REM REPLAYGAIN_TRACK_PEAK 0.942566
    INDEX 00 02:43:12
FILE "17 - Old Black Joe.flac" WAVE
    INDEX 01 00:00:00
  TRACK 18 AUDIO
    TITLE "Sweetheart, Honey, Darlin' Dear"
    REM REPLAYGAIN_TRACK_GAIN -6.55 dB
    REM REPLAYGAIN_TRACK_PEAK 0.943390
    INDEX 00 02:16:58
FILE "18 - Sweetheart, Honey, Darlin' Dear.flac" WAVE
    INDEX 01 00:00:00
  TRACK 19 AUDIO
    TITLE "Symphony in Riffs"
    REM REPLAYGAIN_TRACK_GAIN -2.02 dB
    REM REPLAYGAIN_TRACK_PEAK 0.942902
    INDEX 00 02:25:56
FILE "19 - Symphony in Riffs.flac" WAVE
    INDEX 01 00:00:00
  TRACK 20 AUDIO
    TITLE "Drummin' Man"
    REM REPLAYGAIN_TRACK_GAIN -5.20 dB
    REM REPLAYGAIN_TRACK_PEAK 0.942596
    INDEX 00 02:52:22
FILE "20 - Drummin' Man.flac" WAVE
    INDEX 01 00:00:00
  TRACK 21 AUDIO
    TITLE "Blue Rhythm Fantasy"
    REM REPLAYGAIN_TRACK_GAIN -1.15 dB
    REM REPLAYGAIN_TRACK_PEAK 0.932251
    INDEX 00 02:57:58
FILE "21 - Blue Rhythm Fantasy.flac" WAVE
    INDEX 01 00:00:00
  TRACK 22 AUDIO
    TITLE "Boog It"
    REM REPLAYGAIN_TRACK_GAIN -1.33 dB
    REM REPLAYGAIN_TRACK_PEAK 0.943451
    INDEX 00 05:43:40
FILE "22 - Boog It.flac" WAVE
    INDEX 01 00:00:00
  TRACK 23 AUDIO
    TITLE "Tuxedo Junction"
    REM REPLAYGAIN_TRACK_GAIN -3.10 dB
    REM REPLAYGAIN_TRACK_PEAK 0.943207
    INDEX 00 03:22:03
FILE "23 - Tuxedo Junction.flac" WAVE
    INDEX 01 00:00:00
  TRACK 24 AUDIO
    TITLE "No Name Jive"
    REM REPLAYGAIN_TRACK_GAIN -3.31 dB
    REM REPLAYGAIN_TRACK_PEAK 0.943024
    INDEX 00 02:55:71
FILE "24 - No Name Jive.flac" WAVE
    INDEX 01 00:00:00
  TRACK 25 AUDIO
    TITLE "The Sergent Was Shy"
    REM REPLAYGAIN_TRACK_GAIN -5.70 dB
    REM REPLAYGAIN_TRACK_PEAK 0.943176
    INDEX 00 02:51:41
FILE "25 - The Sergent Was Shy.flac" WAVE
    INDEX 01 00:00:00
  TRACK 26 AUDIO
    TITLE "Who?"
    REM REPLAYGAIN_TRACK_GAIN -5.88 dB
    REM REPLAYGAIN_TRACK_PEAK 0.942505
    INDEX 00 03:05:31
FILE "26 - Who.flac" WAVE
    INDEX 01 00:00:00
 
 
CD2 - Let Me Off Uptown {74:15}
01. The Babe Takes a Bow (3:00)
02. Rhumboogie (2:43)
03. I Hear Music (2:57)
04. How About That Mess (2:44)
05. Full Dress Hop (2:50)
06. Sweet Georgia Brown (2:56)
07. Deep in the Blues (3:20)
08. There'll Be Some Changes Made (3:08)
09. Drum Boogie (3:09)
10. Georgia on My Mind (2:59)
11. Just a Little Bit South of North Carolina (2:43)
12. Slow Down (3:13)
13. Green Eyes (2:38)
14. Let Me Off Uptown (3:06)
15. Kick It (2:05)
16. After You've Gone (2:38)
17. Rockin' Chair (3:03)
18. Stop! The Red Light's On (3:21)
19. The Walls Keep Talking (3:14)
20. Skylark (3:10)
21. Bolero at the Savoy (2:55)
22. Thanks for the Boogie Ride (3:09)
23. Pass the Bounce (2:55)
24. Ball of Fire (3:03)
25. That's What You Think (3:16)
 
 
Лог создания рипа
X Lossless Decoder version 20131102 (145.0)
XLD extraction logfile from 2014-03-19 19:18:05 +0100
Gene Krupa / The Gene Krupa Story (CD2)
Used drive : TSSTcorp CDDVDW SE-S084D (revision TS00)
Media type : Pressed CD
Ripper mode             : XLD Secure Ripper
Disable audio cache     : OK for the drive with a cache less than 1375KiB
Make use of C2 pointers : NO
Read offset correction  : 6
Max retry count         : 20
Gap status              : Analyzed, Appended (except HTOA)
TOC of the extracted CD
     Track |   Start  |  Length  | Start sector | End sector
    ---------------------------------------------------------
        1  | 00:00:00 | 02:59:50 |         0    |    13474
        2  | 02:59:50 | 02:43:12 |     13475    |    25711
        3  | 05:42:62 | 02:57:13 |     25712    |    38999
        4  | 08:40:00 | 02:43:74 |     39000    |    51298
        5  | 11:23:74 | 02:49:51 |     51299    |    64024
        6  | 14:13:50 | 02:56:16 |     64025    |    77240
        7  | 17:09:66 | 03:20:19 |     77241    |    92259
        8  | 20:30:10 | 03:08:28 |     92260    |   106387
        9  | 23:38:38 | 03:09:26 |    106388    |   120588
       10  | 26:47:64 | 02:59:04 |    120589    |   134017
       11  | 29:46:68 | 02:43:21 |    134018    |   146263
       12  | 32:30:14 | 03:13:28 |    146264    |   160766
       13  | 35:43:42 | 02:38:37 |    160767    |   172653
       14  | 38:22:04 | 03:05:42 |    172654    |   186570
       15  | 41:27:46 | 02:05:00 |    186571    |   195945
       16  | 43:32:46 | 02:38:25 |    195946    |   207820
       17  | 46:10:71 | 03:02:59 |    207821    |   221529
       18  | 49:13:55 | 03:21:33 |    221530    |   236637
       19  | 52:35:13 | 03:13:65 |    236638    |   251177
       20  | 55:49:03 | 03:09:45 |    251178    |   265397
       21  | 58:58:48 | 02:54:51 |    265398    |   278498
       22  | 61:53:24 | 03:09:23 |    278499    |   292696
       23  | 65:02:47 | 02:55:21 |    292697    |   305842
       24  | 67:57:68 | 03:02:62 |    305843    |   319554
       25  | 71:00:55 | 03:15:43 |    319555    |   334222
List of alternate offset correction values
        #  | Absolute | Relative | Confidence
    ------------------------------------------
        1  |   -658   |   -664   |      2
AccurateRip Summary (DiscID: 00419b47-049ea00e-5d116819)
    Track 01 : OK (v1+v2, confidence 12/14)
    Track 02 : OK (v1+v2, confidence 12/14)
    Track 03 : OK (v1+v2, confidence 12/14)
    Track 04 : OK (v1+v2, confidence 12/14)
    Track 05 : OK (v1+v2, confidence 12/14)
    Track 06 : OK (v1+v2, confidence 12/14)
    Track 07 : OK (v1+v2, confidence 12/14)
    Track 08 : OK (v1+v2, confidence 12/14)
    Track 09 : OK (v1+v2, confidence 12/14)
    Track 10 : OK (v1+v2, confidence 12/14)
    Track 11 : OK (v1+v2, confidence 12/14)
    Track 12 : OK (v1+v2, confidence 12/14)
    Track 13 : OK (v1+v2, confidence 12/14)
    Track 14 : OK (v1+v2, confidence 12/14)
    Track 15 : OK (v1+v2, confidence 12/14)
    Track 16 : OK (v1+v2, confidence 12/14)
    Track 17 : OK (v1+v2, confidence 12/14)
    Track 18 : OK (v1+v2, confidence 12/14)
    Track 19 : OK (v1+v2, confidence 12/14)
    Track 20 : OK (v1+v2, confidence 11/13)
    Track 21 : OK (v1+v2, confidence 12/14)
    Track 22 : OK (v1+v2, confidence 12/14)
    Track 23 : OK (v1+v2, confidence 12/12)
    Track 24 : OK (v1+v2, confidence 12/14)
    Track 25 : OK (v1+v2, confidence 12/14)
        ->All tracks accurately ripped.
All Tracks
    Album gain               : -4.99 dB
    Peak                     : 0.954193
    Statistics
        Read error                           : 0
        Jitter error (maybe fixed)           : 0
        Retry sector count                   : 0
        Damaged sector count                 : 0
Track 01
    Filename : /Users/Zetent/Documents/CD Rips/Compilations - The Gene Krupa Story (CD2) (2005) [FLAC]/01 The Babe Takes A Bow.flac
               /Users/Zetent/Documents/CD Rips/Compilations - The Gene Krupa Story (CD2) (2005) [320]/01 The Babe Takes A Bow.mp3
               /Users/Zetent/Documents/CD Rips/Compilations - The Gene Krupa Story (CD2) (2005) [V2]/01 The Babe Takes A Bow.mp3
               /Users/Zetent/Documents/CD Rips/Compilations - The Gene Krupa Story (CD2) (2005) [V0]/01 The Babe Takes A Bow.mp3
    Pre-gap length : 00:02:00
    Track gain               : -1.68 dB
    Peak                     : 0.928680
    CRC32 hash (test run)    : C39D1ADB
    CRC32 hash               : C39D1ADB
    CRC32 hash (skip zero)   : 8BB2F0E5
    AccurateRip v1 signature : 8E229AC2
    AccurateRip v2 signature : 7E5E69EC
        ->Accurately ripped (v1+v2, confidence 5+7/14)
    Statistics
        Read error                           : 0
        Jitter error (maybe fixed)           : 0
        Retry sector count                   : 0
        Damaged sector count                 : 0
Track 02
    Filename : /Users/Zetent/Documents/CD Rips/Compilations - The Gene Krupa Story (CD2) (2005) [FLAC]/02 Rhumboogie.flac
               /Users/Zetent/Documents/CD Rips/Compilations - The Gene Krupa Story (CD2) (2005) [320]/02 Rhumboogie.mp3
               /Users/Zetent/Documents/CD Rips/Compilations - The Gene Krupa Story (CD2) (2005) [V2]/02 Rhumboogie.mp3
               /Users/Zetent/Documents/CD Rips/Compilations - The Gene Krupa Story (CD2) (2005) [V0]/02 Rhumboogie.mp3
    Pre-gap length : 00:02:58
    Track gain               : -4.48 dB
    Peak                     : 0.943054
    CRC32 hash (test run)    : CC1B72D3
    CRC32 hash               : CC1B72D3
    CRC32 hash (skip zero)   : BCE88A5D
    AccurateRip v1 signature : 3C598B10
    AccurateRip v2 signature : F8BC1D6E
        ->Accurately ripped (v1+v2, confidence 5+7/14)
    Statistics
        Read error                           : 0
        Jitter error (maybe fixed)           : 0
        Retry sector count                   : 0
        Damaged sector count                 : 0
Track 03
    Filename : /Users/Zetent/Documents/CD Rips/Compilations - The Gene Krupa Story (CD2) (2005) [FLAC]/03 I Hear Music.flac
               /Users/Zetent/Documents/CD Rips/Compilations - The Gene Krupa Story (CD2) (2005) [320]/03 I Hear Music.mp3
               /Users/Zetent/Documents/CD Rips/Compilations - The Gene Krupa Story (CD2) (2005) [V2]/03 I Hear Music.mp3
               /Users/Zetent/Documents/CD Rips/Compilations - The Gene Krupa Story (CD2) (2005) [V0]/03 I Hear Music.mp3
    Pre-gap length : 00:02:58
    Track gain               : -5.15 dB
    Peak                     : 0.954193
    CRC32 hash (test run)    : 1967E717
    CRC32 hash               : 1967E717
    CRC32 hash (skip zero)   : 12DE6F92
    AccurateRip v1 signature : 44E636A8
    AccurateRip v2 signature : A3CF02B2
        ->Accurately ripped (v1+v2, confidence 5+7/14)
    Statistics
        Read error                           : 0
        Jitter error (maybe fixed)           : 0
        Retry sector count                   : 0
        Damaged sector count                 : 0
Track 04
    Filename : /Users/Zetent/Documents/CD Rips/Compilations - The Gene Krupa Story (CD2) (2005) [FLAC]/04 How About That Mess.flac
               /Users/Zetent/Documents/CD Rips/Compilations - The Gene Krupa Story (CD2) (2005) [320]/04 How About That Mess.mp3
               /Users/Zetent/Documents/CD Rips/Compilations - The Gene Krupa Story (CD2) (2005) [V2]/04 How About That Mess.mp3
               /Users/Zetent/Documents/CD Rips/Compilations - The Gene Krupa Story (CD2) (2005) [V0]/04 How About That Mess.mp3
    Pre-gap length : 00:02:58
    Track gain               : -2.83 dB
    Peak                     : 0.942505
    CRC32 hash (test run)    : 390B8A6B
    CRC32 hash               : 390B8A6B
    CRC32 hash (skip zero)   : 4412F1D4
    AccurateRip v1 signature : EF4566F2
    AccurateRip v2 signature : 78E34E8D
        ->Accurately ripped (v1+v2, confidence 5+7/14)
    Statistics
        Read error                           : 0
        Jitter error (maybe fixed)           : 0
        Retry sector count                   : 0
        Damaged sector count                 : 0
Track 05
    Filename : /Users/Zetent/Documents/CD Rips/Compilations - The Gene Krupa Story (CD2) (2005) [FLAC]/05 Full Dress Hop.flac
               /Users/Zetent/Documents/CD Rips/Compilations - The Gene Krupa Story (CD2) (2005) [320]/05 Full Dress Hop.mp3
               /Users/Zetent/Documents/CD Rips/Compilations - The Gene Krupa Story (CD2) (2005) [V2]/05 Full Dress Hop.mp3
               /Users/Zetent/Documents/CD Rips/Compilations - The Gene Krupa Story (CD2) (2005) [V0]/05 Full Dress Hop.mp3
    Pre-gap length : 00:02:58
    Track gain               : -3.25 dB
    Peak                     : 0.942963
    CRC32 hash (test run)    : DFD3B889
    CRC32 hash               : DFD3B889
    CRC32 hash (skip zero)   : A418E5A8
    AccurateRip v1 signature : A4038B19
    AccurateRip v2 signature : E013C7E0
        ->Accurately ripped (v1+v2, confidence 5+7/14)
    Statistics
        Read error                           : 0
        Jitter error (maybe fixed)           : 0
        Retry sector count                   : 0
        Damaged sector count                 : 0
Track 06
    Filename : /Users/Zetent/Documents/CD Rips/Compilations - The Gene Krupa Story (CD2) (2005) [FLAC]/06 Sweet Georgia Brown.flac
               /Users/Zetent/Documents/CD Rips/Compilations - The Gene Krupa Story (CD2) (2005) [320]/06 Sweet Georgia Brown.mp3
               /Users/Zetent/Documents/CD Rips/Compilations - The Gene Krupa Story (CD2) (2005) [V2]/06 Sweet Georgia Brown.mp3
               /Users/Zetent/Documents/CD Rips/Compilations - The Gene Krupa Story (CD2) (2005) [V0]/06 Sweet Georgia Brown.mp3
    Pre-gap length : 00:02:58
    Track gain               : -3.58 dB
    Peak                     : 0.942596
    CRC32 hash (test run)    : 1A6806E4
    CRC32 hash               : 1A6806E4
    CRC32 hash (skip zero)   : 0C3CC0F4
    AccurateRip v1 signature : F06EE5C8
    AccurateRip v2 signature : A9A26DF3
        ->Accurately ripped (v1+v2, confidence 5+7/14)
    Statistics
        Read error                           : 0
        Jitter error (maybe fixed)           : 0
        Retry sector count                   : 0
        Damaged sector count                 : 0
Track 07
    Filename : /Users/Zetent/Documents/CD Rips/Compilations - The Gene Krupa Story (CD2) (2005) [FLAC]/07 Deep In The Blues.flac
               /Users/Zetent/Documents/CD Rips/Compilations - The Gene Krupa Story (CD2) (2005) [320]/07 Deep In The Blues.mp3
               /Users/Zetent/Documents/CD Rips/Compilations - The Gene Krupa Story (CD2) (2005) [V2]/07 Deep In The Blues.mp3
               /Users/Zetent/Documents/CD Rips/Compilations - The Gene Krupa Story (CD2) (2005) [V0]/07 Deep In The Blues.mp3
    Pre-gap length : 00:02:58
    Track gain               : -5.39 dB
    Peak                     : 0.942902
    CRC32 hash (test run)    : 9B89EE77
    CRC32 hash               : 9B89EE77
    CRC32 hash (skip zero)   : 535F89B9
    AccurateRip v1 signature : BA329CAF
    AccurateRip v2 signature : FBCD91FB
        ->Accurately ripped (v1+v2, confidence 5+7/14)
    Statistics
        Read error                           : 0
        Jitter error (maybe fixed)           : 0
        Retry sector count                   : 0
        Damaged sector count                 : 0
Track 08
    Filename : /Users/Zetent/Documents/CD Rips/Compilations - The Gene Krupa Story (CD2) (2005) [FLAC]/08 There'll Be Some Changes Made.flac
               /Users/Zetent/Documents/CD Rips/Compilations - The Gene Krupa Story (CD2) (2005) [320]/08 There'll Be Some Changes Made.mp3
               /Users/Zetent/Documents/CD Rips/Compilations - The Gene Krupa Story (CD2) (2005) [V2]/08 There'll Be Some Changes Made.mp3
               /Users/Zetent/Documents/CD Rips/Compilations - The Gene Krupa Story (CD2) (2005) [V0]/08 There'll Be Some Changes Made.mp3
    Pre-gap length : 00:02:59
    Track gain               : -4.68 dB
    Peak                     : 0.943298
    CRC32 hash (test run)    : 7B823009
    CRC32 hash               : 7B823009
    CRC32 hash (skip zero)   : 3ECD4B02
    AccurateRip v1 signature : 65397CF1
    AccurateRip v2 signature : D99D8765
        ->Accurately ripped (v1+v2, confidence 5+7/14)
    Statistics
        Read error                           : 0
        Jitter error (maybe fixed)           : 0
        Retry sector count                   : 0
        Damaged sector count                 : 0
Track 09
    Filename : /Users/Zetent/Documents/CD Rips/Compilations - The Gene Krupa Story (CD2) (2005) [FLAC]/09 Drum Boogie.flac
               /Users/Zetent/Documents/CD Rips/Compilations - The Gene Krupa Story (CD2) (2005) [320]/09 Drum Boogie.mp3
               /Users/Zetent/Documents/CD Rips/Compilations - The Gene Krupa Story (CD2) (2005) [V2]/09 Drum Boogie.mp3
               /Users/Zetent/Documents/CD Rips/Compilations - The Gene Krupa Story (CD2) (2005) [V0]/09 Drum Boogie.mp3
    Pre-gap length : 00:02:58
    Track gain               : -2.63 dB
    Peak                     : 0.942810
    CRC32 hash (test run)    : FA77F77C
    CRC32 hash               : FA77F77C
    CRC32 hash (skip zero)   : 46CFBCDF
    AccurateRip v1 signature : 8D187995
    AccurateRip v2 signature : F4DB43D4
        ->Accurately ripped (v1+v2, confidence 5+7/14)
    Statistics
        Read error                           : 0
        Jitter error (maybe fixed)           : 0
        Retry sector count                   : 0
        Damaged sector count                 : 0
Track 10
    Filename : /Users/Zetent/Documents/CD Rips/Compilations - The Gene Krupa Story (CD2) (2005) [FLAC]/10 Georgia On My Mind.flac
               /Users/Zetent/Documents/CD Rips/Compilations - The Gene Krupa Story (CD2) (2005) [320]/10 Georgia On My Mind.mp3
               /Users/Zetent/Documents/CD Rips/Compilations - The Gene Krupa Story (CD2) (2005) [V2]/10 Georgia On My Mind.mp3
               /Users/Zetent/Documents/CD Rips/Compilations - The Gene Krupa Story (CD2) (2005) [V0]/10 Georgia On My Mind.mp3
    Pre-gap length : 00:02:57
    Track gain               : -6.17 dB
    Peak                     : 0.943237
    CRC32 hash (test run)    : 0A9AB4F5
    CRC32 hash               : 0A9AB4F5
    CRC32 hash (skip zero)   : 4E2CEE62
    AccurateRip v1 signature : 935FB4F9
    AccurateRip v2 signature : 9BCB645B
        ->Accurately ripped (v1+v2, confidence 5+7/14)
    Statistics
        Read error                           : 0
        Jitter error (maybe fixed)           : 0
        Retry sector count                   : 0
        Damaged sector count                 : 0
Track 11
    Filename : /Users/Zetent/Documents/CD Rips/Compilations - The Gene Krupa Story (CD2) (2005) [FLAC]/11 Just A Little Bit South Of North Carolina.flac
               /Users/Zetent/Documents/CD Rips/Compilations - The Gene Krupa Story (CD2) (2005) [320]/11 Just A Little Bit South Of North Carolina.mp3
               /Users/Zetent/Documents/CD Rips/Compilations - The Gene Krupa Story (CD2) (2005) [V2]/11 Just A Little Bit South Of North Carolina.mp3
               /Users/Zetent/Documents/CD Rips/Compilations - The Gene Krupa Story (CD2) (2005) [V0]/11 Just A Little Bit South Of North Carolina.mp3
    Pre-gap length : 00:02:58
    Track gain               : -6.03 dB
    Peak                     : 0.942963
    CRC32 hash (test run)    : 1343E7C5
    CRC32 hash               : 1343E7C5
    CRC32 hash (skip zero)   : 3AAE4636
    AccurateRip v1 signature : 98231DA1
    AccurateRip v2 signature : 10BF4701
        ->Accurately ripped (v1+v2, confidence 5+7/14)
    Statistics
        Read error                           : 0
        Jitter error (maybe fixed)           : 0
        Retry sector count                   : 0
        Damaged sector count                 : 0
Track 12
    Filename : /Users/Zetent/Documents/CD Rips/Compilations - The Gene Krupa Story (CD2) (2005) [FLAC]/12 Slow Down.flac
               /Users/Zetent/Documents/CD Rips/Compilations - The Gene Krupa Story (CD2) (2005) [320]/12 Slow Down.mp3
               /Users/Zetent/Documents/CD Rips/Compilations - The Gene Krupa Story (CD2) (2005) [V2]/12 Slow Down.mp3
               /Users/Zetent/Documents/CD Rips/Compilations - The Gene Krupa Story (CD2) (2005) [V0]/12 Slow Down.mp3
    Pre-gap length : 00:02:58
    Track gain               : -4.78 dB
    Peak                     : 0.943542
    CRC32 hash (test run)    : 25054B04
    CRC32 hash               : 25054B04
    CRC32 hash (skip zero)   : 67B4A9A6
    AccurateRip v1 signature : E4F304D2
    AccurateRip v2 signature : 30B22B4A
        ->Accurately ripped (v1+v2, confidence 5+7/14)
    Statistics
        Read error                           : 0
        Jitter error (maybe fixed)           : 0
        Retry sector count                   : 0
        Damaged sector count                 : 0
Track 13
    Filename : /Users/Zetent/Documents/CD Rips/Compilations - The Gene Krupa Story (CD2) (2005) [FLAC]/13 Green Eyes.flac
               /Users/Zetent/Documents/CD Rips/Compilations - The Gene Krupa Story (CD2) (2005) [320]/13 Green Eyes.mp3
               /Users/Zetent/Documents/CD Rips/Compilations - The Gene Krupa Story (CD2) (2005) [V2]/13 Green Eyes.mp3
               /Users/Zetent/Documents/CD Rips/Compilations - The Gene Krupa Story (CD2) (2005) [V0]/13 Green Eyes.mp3
    Pre-gap length : 00:02:58
    Track gain               : -5.88 dB
    Peak                     : 0.943085
    CRC32 hash (test run)    : 19D92E71
    CRC32 hash               : 19D92E71
    CRC32 hash (skip zero)   : FE62A413
    AccurateRip v1 signature : 1289C6DA
    AccurateRip v2 signature : C96B7C12
        ->Accurately ripped (v1+v2, confidence 5+7/14)
    Statistics
        Read error                           : 0
        Jitter error (maybe fixed)           : 0
        Retry sector count                   : 0
        Damaged sector count                 : 0
Track 14
    Filename : /Users/Zetent/Documents/CD Rips/Compilations - The Gene Krupa Story (CD2) (2005) [FLAC]/14 Let Me Off Uptown.flac
               /Users/Zetent/Documents/CD Rips/Compilations - The Gene Krupa Story (CD2) (2005) [320]/14 Let Me Off Uptown.mp3
               /Users/Zetent/Documents/CD Rips/Compilations - The Gene Krupa Story (CD2) (2005) [V2]/14 Let Me Off Uptown.mp3
               /Users/Zetent/Documents/CD Rips/Compilations - The Gene Krupa Story (CD2) (2005) [V0]/14 Let Me Off Uptown.mp3
    Pre-gap length : 00:02:58
    Track gain               : -5.15 dB
    Peak                     : 0.942566
    CRC32 hash (test run)    : F6C58A50
    CRC32 hash               : F6C58A50
    CRC32 hash (skip zero)   : 92373A32
    AccurateRip v1 signature : E7E14696
    AccurateRip v2 signature : 9FF93D9F
        ->Accurately ripped (v1+v2, confidence 5+7/14)
    Statistics
        Read error                           : 0
        Jitter error (maybe fixed)           : 0
        Retry sector count                   : 0
        Damaged sector count                 : 0
Track 15
    Filename : /Users/Zetent/Documents/CD Rips/Compilations - The Gene Krupa Story (CD2) (2005) [FLAC]/15 Kick It.flac
               /Users/Zetent/Documents/CD Rips/Compilations - The Gene Krupa Story (CD2) (2005) [320]/15 Kick It.m
13:14
675
Нет комментариев. Ваш будет первым!