Вы используете незарегистрированную версию компонента "Вкладки"!

Поиск

1997 Domagoy Ralasic with Benny Bailey - The Bag Is Packed {Timeless CDSJP 441} [CD]

1997 Domagoy Ralasic with Benny Bailey - The Bag Is Packed {Timeless CDSJP 441} [CD]
Лог создания рипа
Exact Audio Copy V1.0 beta 3 from 29. August 2011
EAC extraction logfile from 30. January 2019, 15:12
Domagoy Ralasic / The Bag Is Packed
Used drive : TSSTcorpCD/DVDW SH-S162L Adapter: 2 ID: 0
Read mode : Secure
Utilize accurate stream : Yes
Defeat audio cache : Yes
Make use of C2 pointers : No
Read offset correction : 6
Overread into Lead-In and Lead-Out : No
Fill up missing offset samples with silence : Yes
Delete leading and trailing silent blocks : No
Null samples used in CRC calculations : Yes
Used interface : Native Win32 interface for Win NT & 2000
Gap handling : Appended to previous track
Used output format : User Defined Encoder
Selected bitrate : 896 kBit/s
Quality : High
Add ID3 tag : No
Command line compressor : C:\Program Files\Exact Audio Copy\FLAC\FLAC.EXE
Additional command line options : -V -8 -T "Genre=%genre%" -T "Artist=%artist%" -T "Title=%title%" -T "Album=%albumtitle%" -T "Date=%year%" -T "Tracknumber=%tracknr%" -T "Comment=%comment%" %source%
TOC of the extracted CD
Track | Start | Length | Start sector | End sector
---------------------------------------------------------
1 | 0:00.00 | 7:12.25 | 0 | 32424
2 | 7:12.25 | 6:15.67 | 32425 | 60616
3 | 13:28.17 | 4:28.28 | 60617 | 80744
4 | 17:56.45 | 7:35.35 | 80745 | 114904
5 | 25:32.05 | 8:15.37 | 114905 | 152066
6 | 33:47.42 | 6:12.40 | 152067 | 180006
7 | 40:00.07 | 5:52.05 | 180007 | 206411
8 | 45:52.12 | 2:31.15 | 206412 | 217751
9 | 48:23.27 | 3:41.50 | 217752 | 234376
10 | 52:05.02 | 4:57.53 | 234377 | 256704
11 | 57:02.55 | 8:48.40 | 256705 | 296344
Track 1
Filename D:\Torrent\Ralasic, Domagoy\01 - Blues For Lady 'J'.wav
Pre-gap length 0:00:02.00
Peak level 100.0 %
Extraction speed 5.3 X
Track quality 100.0 %
Test CRC 9D72E394
Copy CRC 9D72E394
Copy OK
Track 2
Filename D:\Torrent\Ralasic, Domagoy\02 - For All We Know.wav
Peak level 99.9 %
Extraction speed 5.8 X
Track quality 100.0 %
Test CRC 2872A4E9
Copy CRC 2872A4E9
Copy OK
Track 3
Filename D:\Torrent\Ralasic, Domagoy\03 - Lester Leaps In.wav
Peak level 99.9 %
Extraction speed 6.0 X
Track quality 100.0 %
Test CRC 5ABF07D2
Copy CRC 5ABF07D2
Copy OK
Track 4
Filename D:\Torrent\Ralasic, Domagoy\04 - Body & Soul.wav
Peak level 99.9 %
Extraction speed 6.3 X
Track quality 99.9 %
Test CRC 2E5AA456
Copy CRC 2E5AA456
Copy OK
Track 5
Filename D:\Torrent\Ralasic, Domagoy\05 - Peruvian Nights.wav
Peak level 99.9 %
Extraction speed 7.9 X
Track quality 100.0 %
Test CRC 3252C957
Copy CRC 3252C957
Copy OK
Track 6
Filename D:\Torrent\Ralasic, Domagoy\06 - I Should Care.wav
Peak level 99.9 %
Extraction speed 8.3 X
Track quality 100.0 %
Test CRC 04549E99
Copy CRC 04549E99
Copy OK
Track 7
Filename D:\Torrent\Ralasic, Domagoy\07 - You'd Be So Nice (To Come Home To).wav
Peak level 99.9 %
Extraction speed 8.7 X
Track quality 100.0 %
Test CRC A4E77AC6
Copy CRC A4E77AC6
Copy OK
Track 8
Filename D:\Torrent\Ralasic, Domagoy\08 - Manumission.wav
Pre-gap length 0:00:00.01
Peak level 98.4 %
Extraction speed 7.9 X
Track quality 100.0 %
Test CRC 6D9AA36D
Copy CRC 6D9AA36D
Copy OK
Track 9
Filename D:\Torrent\Ralasic, Domagoy\09 - Packed Bag.wav
Peak level 99.9 %
Extraction speed 8.5 X
Track quality 100.0 %
Test CRC 9DF01234
Copy CRC 9DF01234
Copy OK
Track 10
Filename D:\Torrent\Ralasic, Domagoy\10 - What's Waiting For Me Here.wav
Peak level 99.9 %
Extraction speed 9.2 X
Track quality 100.0 %
Test CRC 1C05522E
Copy CRC 1C05522E
Copy OK
Track 11
Filename D:\Torrent\Ralasic, Domagoy\11 - Loverman.wav
Peak level 99.9 %
Extraction speed 9.4 X
Track quality 99.9 %
Test CRC 0AEFD843
Copy CRC 0AEFD843
Copy OK
No errors occurred
End of status report
==== Log checksum A19EF6FA2D44969F608C7C1D142BCDF419E75E4BFB04CB5B8322590B55BFF457 ====
Содержание индексной карты (.CUE)
REM GENRE Jazz
REM DATE 1997
REM DISCID 840F6F0B
REM COMMENT "ExactAudioCopy v1.0b3"
PERFORMER "Domagoy Ralasic"
TITLE "The Bag Is Packed"
FILE "01 - Blues For Lady 'J'.wav" WAVE
TRACK 01 AUDIO
TITLE "Blues For Lady 'J'"
PERFORMER "Domagoy Ralasic"
INDEX 01 00:00:00
FILE "02 - For All We Know.wav" WAVE
TRACK 02 AUDIO
TITLE "For All We Know"
PERFORMER "Domagoy Ralasic"
INDEX 01 00:00:00
FILE "03 - Lester Leaps In.wav" WAVE
TRACK 03 AUDIO
TITLE "Lester Leaps In"
PERFORMER "Domagoy Ralasic"
INDEX 01 00:00:00
FILE "04 - Body & Soul.wav" WAVE
TRACK 04 AUDIO
TITLE "Body & Soul"
PERFORMER "Domagoy Ralasic"
INDEX 01 00:00:00
FILE "05 - Peruvian Nights.wav" WAVE
TRACK 05 AUDIO
TITLE "Peruvian Nights"
PERFORMER "Domagoy Ralasic"
INDEX 01 00:00:00
FILE "06 - I Should Care.wav" WAVE
TRACK 06 AUDIO
TITLE "I Should Care"
PERFORMER "Domagoy Ralasic"
INDEX 01 00:00:00
FILE "07 - You'd Be So Nice (To Come Home To).wav" WAVE
TRACK 07 AUDIO
TITLE "You'd Be So Nice (To Come Home To)"
PERFORMER "Domagoy Ralasic"
INDEX 01 00:00:00
TRACK 08 AUDIO
TITLE "Manumission"
PERFORMER "Domagoy Ralasic"
INDEX 00 05:52:04
FILE "08 - Manumission.wav" WAVE
INDEX 01 00:00:00
FILE "09 - Packed Bag.wav" WAVE
TRACK 09 AUDIO
TITLE "Packed Bag"
PERFORMER "Domagoy Ralasic"
INDEX 01 00:00:00
FILE "10 - What's Waiting For Me Here.wav" WAVE
TRACK 10 AUDIO
TITLE "What's Waiting For Me Here"
PERFORMER "Domagoy Ralasic"
INDEX 01 00:00:00
FILE "11 - Loverman.wav" WAVE
TRACK 11 AUDIO
TITLE "Loverman"
PERFORMER "Domagoy Ralasic"
INDEX 01 00:00:00
Any questions - support@pro-jazz.com. Есть вопросы - support@pro-jazz.com
21:02
163
Нет комментариев. Ваш будет первым!