Поиск

1996 VA - This Is Acid Jazz, Vol. 5: Livin' in the Land of Hi-Fi {Instinct 327}

1996 VA - This Is Acid Jazz, Vol. 5: Livin' in the Land of Hi-Fi {Instinct 327}
Страна-производитель диска (релиза):
USA
Дата издания диска:
9 апреля 1996
Номер по каталогу:
327
Носитель:
CD
Битрейт аудио:
lossless
Аудиокодек:
FLAC (*.flac)
Тип рипа:
tracks+.cue
Время звучания:
01:17:38
Наличие сканов:
  • web
Релизёр (источник):
anonymous
Состав:
Состав

A-One Performer, Primary Artist
Fabio Accardi Drums
Chris Bangs Composer, Producer, Programming
Ashley Beedle Remixing
Mike Benn Composer, Keyboards, Mixing, Producer
Frankie Beverly Composer
Laurent Briffaux Bass
Claudio Cellada Fender Rhodes, Piano
CFM Band Performer, Primary Artist
Chris the French Kiss Producer
Norman Cook Composer
Count Basic Performer, Primary Artist
Neil Cowley Keyboards
Federico Dammacco Sax (Baritone), Sax (Tenor)
Reynald Deschamps Composer, Mixing, Producer, Vocals (Background)
Kevin DiSimone Fender Rhodes, Flute, Horn, Keyboards
DJ Desmond K Arranger, Beats, Mixing, Producer, Programming, Sampling, Scratching
DJ Yamaguchi Primary Artist
Steve Dub Engineer, Producer, Programming
Duboniks Performer
Dirk Erchinger Drums
Fez Combo Performer
Pippo Foglianese Composer, Trombone
Fried Funk Food Primary Artist
Scott Garland Saxophone
Paul Gunter Composer, Percussion
Chanan Hanspal Composer, Guitar, Multi Instruments, Percussion, Woodwind Arrangement
Dill Harris Mixing
Trevor Irving Trumpet
S. Jalier Flute, Saxophone
Mario "Aspirina" Jauregui Percussion
Steve Jeffries Keyboards
Philippe Kayser Composer, Drums, Flute, Keyboards, Percussion, Producer, Programming
Caspar Kedros Engineer, Mixing, Producer, Programming
Darius Kedros Bass, Composer, Engineer, Mixing, Producer, Programming
Dieter Kolbeck Keyboards
Thomas Krueger Bass, Composer, Guitar, Keyboard Programming, Producer
Yasushi Kurobane Arranger, Producer, Programming
A. Kurt Guitar
Willi Langer Bass
Peter Legat Guitar
Dan Lipman Flute, Saxophone
Stephan Maass Percussion
Marden Hill Composer, Mixing, Producer
Peter Mark Congas, Drums
Mike Mason Vocals (Background)
Ernie McKone Vocals
Duncan Millar Producer
Mr. Electric Triangle Bass, Drums
Toshihiko Miyoshi Engineer
Mondo Grosso Performer
Masato Nakamura Sax (Tenor)
No Sé Primary Artist
Shuya Okino Producer
Tansay Omar Composer, Drums
Nic One Scratching
Shinichi Osawa Guitar (Bass), Producer
Hidehito Otsuka Sax (Alto)
Marcello Piarulli Bass
Alessandro Piscitelli Congas, Percussion
John Pondel Bass, Guitar
Jose Ponferrada Arranger, Mixing
Nigel Wallace Price Guitar
Dave Priseman Trumpet
F. Pulet Trumpet
Rosa Russ Vocals (Background)
Kelli Sae Vocals
Alan Sanders Drums
Charles Sanders Saxophone
Lee Sankey Harp
Satoshi Sano Trombone
Noriyoshi Sasanuma Bass
Slowly Performer
Soundscape Performer
Gary Spacey-Foote Flute, Saxophone
Mick Talbot Composer, Keyboards, Producer
Jane Tuff Clarinet (Bass)
Freddy Turner Vocals
Justin Whillock Mixing
Takeshi Yamaguchi Producer
Yello Producer
Tatsuji Yokoyama Percussion
Chizuko Yoshihiro Fender Rhodes, Organ (Hammond)
Hajime Yoshizawa Piano, Vibraphone
Mizue Youichiro Trumpet

01. Slowly - On the Loose (5:52)
02. Mr. Electric Triangle - The Track Formerly Known As? (6:44)
03. DJ Yamaguchi - Melting Pot (5:02)
04. A-One - West by South West (6:07)
05. Soundscape - Inner Space (5:59)
06. Reminiscence Quartet - Peace of Mind (3:58)
07. Marden Hill - Into the Future (4:50)
08. Count Basic - Joy and Pain (4:08)
09. No S'e - United Flying Objects (3:37)
10. duboniks - Touching Cloth (6:18)
11. Fez Combo - The Gizmo (6:18)
12. Mondo Grosso - Spirit of Voyage (6:34)
13. Fried Food Junk - Turn On, Tune In, Find Joy (6:55)
14. CFM Band - Block Party (5:16)
Лог создания рипа
Exact Audio Copy V0.99 prebeta 4 from 23. January 2008

EAC extraction logfile from 24. March 2008, 19:12

Various / Livin' In the Land of Hi-Fi  (vol. 5)

Used drive  : SlimtypeDVD A  DS8AZH   Adapter: 0  ID: 0

Read mode               : Secure
Utilize accurate stream : Yes
Defeat audio cache      : Yes
Make use of C2 pointers : No

Read offset correction                      : 594
Overread into Lead-In and Lead-Out          : No
Fill up missing offset samples with silence : Yes
Delete leading and trailing silent blocks   : No
Null samples used in CRC calculations       : Yes
Used interface                              : Native Win32 interface for Win NT & 2000
Gap handling                                : Not detected, thus appended to previous track

Used output format              : User Defined Encoder
Selected bitrate                : 768 kBit/s
Quality                         : High
Add ID3 tag                     : No
Command line compressor         : C:\Program Files\Exact Audio Copy\Flac\flac.exe
Additional command line options : -V -8 -T "artist=%a" -T "title=%t" -T "album=%g" -T "date=%y" -T "tracknumber=%n" -T "genre=%m" %s


TOC of the extracted CD

     Track |   Start  |  Length  | Start sector | End sector 
    ---------------------------------------------------------
        1  |  0:00.00 |  5:54.47 |         0    |    26596   
        2  |  5:54.47 |  6:47.17 |     26597    |    57138   
        3  | 12:41.64 |  5:05.13 |     57139    |    80026   
        4  | 17:47.02 |  6:09.25 |     80027    |   107726   
        5  | 23:56.27 |  6:00.63 |    107727    |   134789   
        6  | 29:57.15 |  4:00.45 |    134790    |   152834   
        7  | 33:57.60 |  4:51.57 |    152835    |   174716   
        8  | 38:49.42 |  4:09.38 |    174717    |   193429   
        9  | 42:59.05 |  3:38.50 |    193430    |   209829   
       10  | 46:37.55 |  5:14.40 |    209830    |   233419   
       11  | 51:52.20 |  6:20.70 |    233420    |   261989   
       12  | 58:13.15 |  6:36.02 |    261990    |   291691   
       13  | 64:49.17 |  6:57.73 |    291692    |   323039   
       14  | 71:47.15 |  5:16.10 |    323040    |   346749   


Track  1

     Filename G:\Waffles Torrents\-Various - This Is Acid Jazz 5\Livin' In the Land of Hi-Fi  (vol. 5) - 1996\01 - Slowly - On the Loose.wav

     Peak level 92.3 %
     Track quality 99.9 %
     Test CRC 448AE4A7
     Copy CRC 448AE4A7
     Accurately ripped (confidence 3)  [7792152A]
     Copy OK

Track  2

     Filename G:\Waffles Torrents\-Various - This Is Acid Jazz 5\Livin' In the Land of Hi-Fi  (vol. 5) - 1996\02 - Mr. Electric Triangle - The Track Formerly Known As  .wav

     Peak level 88.4 %
     Track quality 100.0 %
     Test CRC BF0EDC3B
     Copy CRC BF0EDC3B
     Accurately ripped (confidence 3)  [EDAB4175]
     Copy OK

Track  3

     Filename G:\Waffles Torrents\-Various - This Is Acid Jazz 5\Livin' In the Land of Hi-Fi  (vol. 5) - 1996\03 - DJ Yamaguchi - Melting Pot.wav

     Peak level 95.5 %
     Track quality 99.9 %
     Test CRC 25E64ECB
     Copy CRC 25E64ECB
     Accurately ripped (confidence 3)  [42647B66]
     Copy OK

Track  4

     Filename G:\Waffles Torrents\-Various - This Is Acid Jazz 5\Livin' In the Land of Hi-Fi  (vol. 5) - 1996\04 - A-One - West by South West.wav

     Peak level 91.0 %
     Track quality 100.0 %
     Test CRC 3B381AD5
     Copy CRC 3B381AD5
     Accurately ripped (confidence 3)  [B99082FA]
     Copy OK

Track  5

     Filename G:\Waffles Torrents\-Various - This Is Acid Jazz 5\Livin' In the Land of Hi-Fi  (vol. 5) - 1996\05 - Soundscape - Inner Space.wav

     Peak level 86.8 %
     Track quality 100.0 %
     Test CRC 44B99E38
     Copy CRC 44B99E38
     Accurately ripped (confidence 3)  [8EB3EF7A]
     Copy OK

Track  6

     Filename G:\Waffles Torrents\-Various - This Is Acid Jazz 5\Livin' In the Land of Hi-Fi  (vol. 5) - 1996\06 - Reminiscence Quartet - Peace of Mind.wav

     Peak level 82.5 %
     Track quality 100.0 %
     Test CRC 09EF680D
     Copy CRC 09EF680D
     Accurately ripped (confidence 3)  [B2C0D4FA]
     Copy OK

Track  7

     Filename G:\Waffles Torrents\-Various - This Is Acid Jazz 5\Livin' In the Land of Hi-Fi  (vol. 5) - 1996\07 - Marden Hill - Into the Future.wav

     Peak level 100.0 %
     Track quality 100.0 %
     Test CRC 06F4EE6E
     Copy CRC 06F4EE6E
     Accurately ripped (confidence 3)  [B397F393]
     Copy OK

Track  8

     Filename G:\Waffles Torrents\-Various - This Is Acid Jazz 5\Livin' In the Land of Hi-Fi  (vol. 5) - 1996\08 - Count Basic - Joy and Pain.wav

     Peak level 100.0 %
     Track quality 100.0 %
     Test CRC F1D649B9
     Copy CRC F1D649B9
     Accurately ripped (confidence 3)  [48418AA2]
     Copy OK

Track  9

     Filename G:\Waffles Torrents\-Various - This Is Acid Jazz 5\Livin' In the Land of Hi-Fi  (vol. 5) - 1996\09 - No S'e - United Flying Objects.wav

     Peak level 89.1 %
     Track quality 100.0 %
     Test CRC 721468FB
     Copy CRC 721468FB
     Accurately ripped (confidence 3)  [DD4F865A]
     Copy OK

Track 10

     Filename G:\Waffles Torrents\-Various - This Is Acid Jazz 5\Livin' In the Land of Hi-Fi  (vol. 5) - 1996\10 - duboniks - Touching Cloth.wav

     Peak level 98.1 %
     Track quality 100.0 %
     Test CRC 094A5859
     Copy CRC 094A5859
     Accurately ripped (confidence 3)  [6D7B29E0]
     Copy OK

Track 11

     Filename G:\Waffles Torrents\-Various - This Is Acid Jazz 5\Livin' In the Land of Hi-Fi  (vol. 5) - 1996\11 - Fez Combo - The Gizmo.wav

     Peak level 80.3 %
     Track quality 100.0 %
     Test CRC 12D9FEE9
     Copy CRC 12D9FEE9
     Accurately ripped (confidence 3)  [3C0F5C5D]
     Copy OK

Track 12

     Filename G:\Waffles Torrents\-Various - This Is Acid Jazz 5\Livin' In the Land of Hi-Fi  (vol. 5) - 1996\12 - Mondo Grosso - Spirit of Voyage.wav

     Peak level 100.0 %
     Track quality 100.0 %
     Test CRC F7F4F828
     Copy CRC F7F4F828
     Accurately ripped (confidence 3)  [8D2EEA99]
     Copy OK

Track 13

     Filename G:\Waffles Torrents\-Various - This Is Acid Jazz 5\Livin' In the Land of Hi-Fi  (vol. 5) - 1996\13 - Fried Food Junk - Turn On, Tune In, Find Joy.wav

     Peak level 84.6 %
     Track quality 100.0 %
     Test CRC 112A78D1
     Copy CRC 112A78D1
     Accurately ripped (confidence 3)  [80FE208D]
     Copy OK

Track 14

     Filename G:\Waffles Torrents\-Various - This Is Acid Jazz 5\Livin' In the Land of Hi-Fi  (vol. 5) - 1996\14 - CFM Band - Block Party.wav

     Peak level 100.0 %
     Track quality 99.9 %
     Test CRC 9C32DB37
     Copy CRC 9C32DB37
     Accurately ripped (confidence 3)  [CC203C90]
     Copy OK


All tracks accurately ripped

No errors occurred

End of status report
Содержание индексной карты (.CUE)
REM GENRE "Acid Jazz"
REM DATE 1996
REM DISCID DF120F0E
REM COMMENT "ExactAudioCopy v0.99pb4"
PERFORMER "Various"
TITLE "Livin' In the Land of Hi-Fi  (vol. 5)"
FILE "Livin' In the Land of Hi-Fi  (vol. 5) - 1996\01 - Slowly - On the Loose.wav" WAVE
  TRACK 01 AUDIO
    TITLE "On the Loose"
    PERFORMER "Slowly"
    INDEX 01 00:00:00
  TRACK 02 AUDIO
    TITLE "The Track Formerly Known As ?"
    PERFORMER "Mr. Electric Triangle"
    INDEX 00 05:52:47
FILE "Livin' In the Land of Hi-Fi  (vol. 5) - 1996\02 - Mr. Electric Triangle - The Track Formerly Known As  .wav" WAVE
    INDEX 01 00:00:00
  TRACK 03 AUDIO
    TITLE "Melting Pot"
    PERFORMER "DJ Yamaguchi"
    INDEX 00 06:44:50
FILE "Livin' In the Land of Hi-Fi  (vol. 5) - 1996\03 - DJ Yamaguchi - Melting Pot.wav" WAVE
    INDEX 01 00:00:00
  TRACK 04 AUDIO
    TITLE "West by South West"
    PERFORMER "A-One"
    INDEX 00 05:01:65
FILE "Livin' In the Land of Hi-Fi  (vol. 5) - 1996\04 - A-One - West by South West.wav" WAVE
    INDEX 01 00:00:00
  TRACK 05 AUDIO
    TITLE "Inner Space"
    PERFORMER "Soundscape"
    INDEX 00 06:07:45
FILE "Livin' In the Land of Hi-Fi  (vol. 5) - 1996\05 - Soundscape - Inner Space.wav" WAVE
    INDEX 01 00:00:00
  TRACK 06 AUDIO
    TITLE "Peace of Mind"
    PERFORMER "Reminiscence Quartet"
    INDEX 00 05:59:05
FILE "Livin' In the Land of Hi-Fi  (vol. 5) - 1996\06 - Reminiscence Quartet - Peace of Mind.wav" WAVE
    INDEX 01 00:00:00
  TRACK 07 AUDIO
    TITLE "Into the Future"
    PERFORMER "Marden Hill"
    INDEX 00 03:58:02
FILE "Livin' In the Land of Hi-Fi  (vol. 5) - 1996\07 - Marden Hill - Into the Future.wav" WAVE
    INDEX 01 00:00:00
  TRACK 08 AUDIO
    TITLE "Joy and Pain"
    PERFORMER "Count Basic"
    INDEX 00 04:50:17
FILE "Livin' In the Land of Hi-Fi  (vol. 5) - 1996\08 - Count Basic - Joy and Pain.wav" WAVE
    INDEX 01 00:00:00
FILE "Livin' In the Land of Hi-Fi  (vol. 5) - 1996\09 - No S'e - United Flying Objects.wav" WAVE
  TRACK 09 AUDIO
    TITLE "United Flying Objects"
    PERFORMER "No S'e"
    INDEX 01 00:00:00
  TRACK 10 AUDIO
    TITLE "Touching Cloth"
    PERFORMER "duboniks"
    INDEX 00 03:36:47
FILE "Livin' In the Land of Hi-Fi  (vol. 5) - 1996\10 - duboniks - Touching Cloth.wav" WAVE
    INDEX 01 00:00:00
  TRACK 11 AUDIO
    TITLE "The Gizmo"
    PERFORMER "Fez Combo"
    INDEX 00 05:11:57
FILE "Livin' In the Land of Hi-Fi  (vol. 5) - 1996\11 - Fez Combo - The Gizmo.wav" WAVE
    INDEX 01 00:00:00
  TRACK 12 AUDIO
    TITLE "Spirit of Voyage"
    PERFORMER "Mondo Grosso"
    INDEX 00 06:18:65
FILE "Livin' In the Land of Hi-Fi  (vol. 5) - 1996\12 - Mondo Grosso - Spirit of Voyage.wav" WAVE
    INDEX 01 00:00:00
  TRACK 13 AUDIO
    TITLE "Turn On, Tune In, Find Joy"
    PERFORMER "Fried Food Junk"
    INDEX 00 06:34:00
FILE "Livin' In the Land of Hi-Fi  (vol. 5) - 1996\13 - Fried Food Junk - Turn On, Tune In, Find Joy.wav" WAVE
    INDEX 01 00:00:00
  TRACK 14 AUDIO
    TITLE "Block Party"
    PERFORMER "CFM Band"
    INDEX 00 06:55:60
FILE "Livin' In the Land of Hi-Fi  (vol. 5) - 1996\14 - CFM Band - Block Party.wav" WAVE
    INDEX 01 00:00:00
Приватный:
Нет (DHT включён)
Размер:
459.24 Мб (481,544,375 байт) » файлов: 19
Участники:
9 раздают, 0 качают (9 участников всего)
Внешние участники:
--- [ Обновить ]
19:53
218
RSS
Нет комментариев. Ваш будет первым!