Поиск

1993 VA - The Rebirth of Cool, Vol. 1 {4th & B'way 162-444 061-2}

 1993 VA - The Rebirth of Cool, Vol. 1 {4th & B'way 162-444 061-2}
Страна-производитель диска (релиза):
USA
Дата издания диска:
1993
Номер по каталогу:
162-444 061-2
Носитель:
CD
Битрейт аудио:
lossless
Аудиокодек:
FLAC (*.flac)
Тип рипа:
tracks+.cue
Время звучания:
49:49
Наличие сканов:
  • да
Релизёр (источник):
cktbreaker
Треклист:

01. Chameleon - Jazz Warriors
02. Taurus Woman - The Subterraneans
03. Don't Say Nothin' - Opaz
04. Kickin' Jazz - Outlaw
05. Bad Brother - Ronny Jordan
06. Fever - Stereo MC's
07. Revival (Rebirth Edit) - Martine Girault
08. Caroline - MC Solaar
09. Loud Minority (Club Mix) - United Future Organization
10. Inner City Boundaries - Freestyle Fellowship

Состав:
  • Pete Arden Producer
  • Pigale Boom Bass Producer
  • Daddy-O Composer, Producer
  • Mardou Fox & Jonzi Performer
  • Freestyle Fellowship Composer, Performer, Producer
  • Martine Girault Performer, Vocals
  • Ray Hayden Composer, Producer
  • Jimmy Jay Producer
  • The Jazz Warriors Performer
  • Jonzi Performer
  • Ronny Jordan Composer, Performer, Vocals
  • Simon «The Funky Ginger» Law Producer
  • M&M Music Factory Producer
  • MC Solaar Performer, Vocals
  • Opaz Performer
  • Outlaw Performer, Producer
  • Adrian Reid Arranger
  • Tetsuo Sakurai Producer
  • Stereo MC's Performer, Producer, Vocals
  • Subterraneans Performer
  • Tim Dog Engineer
  • United Future Organization Performer, Producer
<spoiler title="Лог создания рипа"><pre>Exact Audio Copy V0.99 prebeta 3 from 28. July 2007
EAC extraction logfile from 1. December 2007, 12:34
Various / The Rebirth of Cool
Used drive : TSSTcorpCD/DVDW TS-H652M Adapter: 1 ID: 0
Read mode : Secure
Utilize accurate stream : Yes
Defeat audio cache : Yes
Make use of C2 pointers : No
Read offset correction : 6
Overread into Lead-In and Lead-Out : No
Fill up missing offset samples with silence : Yes
Delete leading and trailing silent blocks : No
Null samples used in CRC calculations : Yes
Used interface : Installed external ASPI interface
Gap handling : Appended to previous track
Used output format : User Defined Encoder
Selected bitrate : 192 kBit/s
Quality : High
Add ID3 tag : No
Command line compressor : C:\Program Files\FLAC\flac.exe
Additional command line options : -8 -A tukey(0.25) -A gauss(0.1875) -b 4096 -V -T "artist=%a" -T "title=%t" -T "album=%g" -T "date=%y" -T "tracknumber=%n" -T "genre=%m" %s --sector-align
TOC of the extracted CD Track | Start | Length | Start sector | End sector --------------------------------------------------------- 1 | 0:00.33 | 6:49.47 | 33 | 30754 2 | 6:50.05 | 4:07.60 | 30755 | 49339 3 | 10:57.65 | 4:30.45 | 49340 | 69634 4 | 15:28.35 | 5:12.50 | 69635 | 93084 5 | 20:41.10 | 5:17.05 | 93085 | 116864 6 | 25:58.15 | 3:17.00 | 116865 | 131639 7 | 29:15.15 | 5:00.23 | 131640 | 154162 8 | 34:15.38 | 6:22.12 | 154163 | 182824 9 | 40:37.50 | 4:54.45 | 182825 | 204919 10 | 45:32.20 | 4:38.08 | 204920 | 225777
Track 1 Filename K:\The Rebirth Of Cool - (A Deeper Shade Of Blues) Feat. M.C. Solaar, Ronny Jordan, Martine Girault, Stereo M.C.'s\01 - Jazz Warriors - Chameleon.wav Pre-gap length 0:00:02.44 Peak level 92.0 % Track quality 100.0 % Test CRC 7FB9E39F Copy CRC 7FB9E39F Accurately ripped (confidence 3) [521E831E] Copy OK
Track 2 Filename K:\The Rebirth Of Cool - (A Deeper Shade Of Blues) Feat. M.C. Solaar, Ronny Jordan, Martine Girault, Stereo M.C.'s\02 - The Subterraneans, Mardou Fox & Jonzi - Taurus Woman.wav Pre-gap length 0:00:01.69 Peak level 95.9 % Track quality 100.0 % Test CRC E53C9D45 Copy CRC E53C9D45 Accurately ripped (confidence 3) [BD4E5E9F] Copy OK
Track 3 Filename K:\The Rebirth Of Cool - (A Deeper Shade Of Blues) Feat. M.C. Solaar, Ronny Jordan, Martine Girault, Stereo M.C.'s\03 - Opaz - Don't Say Nothin'.wav Pre-gap length 0:00:02.22 Peak level 96.1 % Track quality 100.0 % Test CRC 95C29F2B Copy CRC 95C29F2B Accurately ripped (confidence 3) [3495A869] Copy OK
Track 4 Filename K:\The Rebirth Of Cool - (A Deeper Shade Of Blues) Feat. M.C. Solaar, Ronny Jordan, Martine Girault, Stereo M.C.'s\04 - Outlaw - Kickin' Jazz.wav Pre-gap length 0:00:00.89 Peak level 100.0 % Track quality 100.0 % Test CRC 042E8B18 Copy CRC 042E8B18 Accurately ripped (confidence 2) [95395CD8] Copy OK
Track 5 Filename K:\The Rebirth Of Cool - (A Deeper Shade Of Blues) Feat. M.C. Solaar, Ronny Jordan, Martine Girault, Stereo M.C.'s\05 - Ronny Jordan - Bad Brother.wav Pre-gap length 0:00:01.96 Peak level 100.0 % Track quality 100.0 % Test CRC 032662CD Copy CRC 032662CD Accurately ripped (confidence 3) [6BDE63FF] Copy OK
Track 6 Filename K:\The Rebirth Of Cool - (A Deeper Shade Of Blues) Feat. M.C. Solaar, Ronny Jordan, Martine Girault, Stereo M.C.'s\06 - Stereo MC's - Fever.wav Pre-gap length 0:00:02.16 Peak level 100.0 % Track quality 100.0 % Test CRC 01E6E220 Copy CRC 01E6E220 Accurately ripped (confidence 3) [B256153D] Copy OK
Track 7 Filename K:\The Rebirth Of Cool - (A Deeper Shade Of Blues) Feat. M.C. Solaar, Ronny Jordan, Martine Girault, Stereo M.C.'s\07 - Martine Girault - Revival (Rebirth Edit).wav Pre-gap length 0:00:02.26 Peak level 100.0 % Track quality 100.0 % Test CRC 0C93903F Copy CRC 0C93903F Accurately ripped (confidence 3) [351C1E20] Copy OK
Track 8 Filename K:\The Rebirth Of Cool - (A Deeper Shade Of Blues) Feat. M.C. Solaar, Ronny Jordan, Martine Girault, Stereo M.C.'s\08 - MC Solaar - Caroline.wav Pre-gap length 0:00:01.93 Peak level 100.0 % Track quality 100.0 % Test CRC A961F7CD Copy CRC A961F7CD Accurately ripped (confidence 3) [E6A26B4B] Copy OK
Track 9 Filename K:\The Rebirth Of Cool - (A Deeper Shade Of Blues) Feat. M.C. Solaar, Ronny Jordan, Martine Girault, Stereo M.C.'s\09 - United Future Organization - Loud Minority Club Mix).wav Pre-gap length 0:00:00.69 Peak level 100.0 % Track quality 100.0 % Test CRC 62D71099 Copy CRC 62D71099 Accurately ripped (confidence 3) [0C54E6A2] Copy OK
Track 10 Filename K:\The Rebirth Of Cool - (A Deeper Shade Of Blues) Feat. M.C. Solaar, Ronny Jordan, Martine Girault, Stereo M.C.'s\10 - Freestyle Fellowship - Inner City Boundaries.wav Pre-gap length 0:00:02.49 Peak level 100.0 % Track quality 100.0 % Test CRC EB64AFFE Copy CRC EB64AFFE Accurately ripped (confidence 3) [6DA68FF2] Copy OK
All tracks accurately ripped
No errors occurred
End of status report
<spoiler title="Содержание индексной карты (.CUE)"><pre>REM GENRE "Acid Jazz"
REM DATE 1993
REM DISCID 830BC20A
REM COMMENT "ExactAudioCopy v0.99pb3"
PERFORMER "Various"
TITLE "The Rebirth of Cool"
FILE "01 - Jazz Warriors - Chameleon.wav" WAVE TRACK 01 AUDIO TITLE "Chameleon" PERFORMER "Jazz Warriors" PREGAP 00:00:33 INDEX 01 00:00:00 TRACK 02 AUDIO TITLE "Taurus Woman" PERFORMER "The Subterraneans, Mardou Fox & Jonzi" INDEX 00 06:47:70
FILE "02 - The Subterraneans, Mardou Fox & Jonzi - Taurus Woman.wav" WAVE INDEX 01 00:00:00 TRACK 03 AUDIO TITLE "Don't Say Nothin'" PERFORMER "Opaz" INDEX 00 04:05:43
FILE "03 - Opaz - Don't Say Nothin'.wav" WAVE INDEX 01 00:00:00 TRACK 04 AUDIO TITLE "Kickin' Jazz" PERFORMER "Outlaw" INDEX 00 04:29:53
FILE "04 - Outlaw - Kickin' Jazz.wav" WAVE INDEX 01 00:00:00 TRACK 05 AUDIO TITLE "Bad Brother" PERFORMER "Ronny Jordan" INDEX 00 05:10:53
FILE "05 - Ronny Jordan - Bad Brother.wav" WAVE INDEX 01 00:00:00 TRACK 06 AUDIO TITLE "Fever" PERFORMER "Stereo MC's" INDEX 00 05:14:68
FILE "06 - Stereo MC's - Fever.wav" WAVE INDEX 01 00:00:00 TRACK 07 AUDIO TITLE "Revival (Rebirth Edit)" PERFORMER "Martine Girault" INDEX 00 03:14:55
FILE "07 - Martine Girault - Revival (Rebirth Edit).wav" WAVE INDEX 01 00:00:00 TRACK 08 AUDIO TITLE "Caroline" PERFORMER "MC Solaar" INDEX 00 04:58:28
FILE "08 - MC Solaar - Caroline.wav" WAVE INDEX 01 00:00:00 TRACK 09 AUDIO TITLE "Loud Minority Club Mix)" PERFORMER "United Future Organization" INDEX 00 06:21:35
FILE "09 - United Future Organization - Loud Minority Club Mix).wav" WAVE INDEX 01 00:00:00 TRACK 10 AUDIO TITLE "Inner City Boundaries" PERFORMER "Freestyle Fellowship" INDEX 00 04:52:08
FILE "10 - Freestyle Fellowship - Inner City Boundaries.wav" WAVE INDEX 01 00:00:00
Приватный Нет (DHT включён)
Хэш 1BE4BA646C875BDAEBCD27F5F2EF093F1DFC3275
Размер 318.92 Мб (334,414,605 байт) » файлов: 19 [ Список файлов ]
Участники 1 раздают, 0 качают (1 участников всего)
Внешние участники Нет внешних трекеров
Скорость Сейчас никто не качает
10:52
71
RSS
Нет комментариев. Ваш будет первым!