Поиск

1996 Ferenc Snetberger - The Budapest Concert

1996 Ferenc Snetberger - The Budapest Concert
Страна-производитель диска (релиза):
Germany
Дата записи диска:
22 февраля 1995
Дата издания диска:
23 июля 1996
Номер по каталогу:
TIP-888 823 2
Носитель:
CD
Битрейт аудио:
lossless
Аудиокодек:
FLAC (*.flac)
Тип рипа:
tracks
Время звучания:
01:05:48
Наличие сканов:
  • да
Релизёр (источник):
hvilon
Треклист:
01. Budapest Mood (6:59)
02. Springtime In Winter (3:24)
03. Song To The East (9:25)
04. Brazil (6:10)
05. The Dolphin (5:37)
06. Little Bossa (3:24)
07. Variation (Dedicated To Django Rheinhardt) (7:06)
08. Tangoa Free (4:05)
09. Bossa For Egberto (9:03)
10. Manha De Carnaval (5:30)
11. Budapest Encore (5:05)
Состав:
  • Barnabas Hidasi Engineer, Mixing
  • Angela Snetberger Producer
  • Ferenc Snétberger Composer
  • Matthias Winckelmann Executive Producer


Recorded live at the Music Academy «Ferenc Liszt», Budapest, Hungary
Exact Audio Copy V0.99 prebeta 1 from 25. May 2007
Отчёт EAC об извлечении, выполненном 26. августа 2007, 20:55
Ferenc Snetberger / The Budapest Concert
Дисковод: _NEC DVD_RW ND-4570A Adapter: 1 ID: 1
Режим чтения : Достоверность
Использование точного потока : Да
Отключение кэша аудио : Нет
Использование указателей C2 : Нет
Комбинированное смещение чтения/записи : 0
Способность читать области Lead-in и Lead-out : Нет
Заполнение пропущенных сэмплов тишиной : Да
Удаление блоков с тишиной в начале и конце : Нет
Интерфейс : Установленный внешний ASPI-интерфейс
Обработка зазоров : Не обнаружено, добавлено к предыдущему треку
Выходной формат : Пользовательский кодировщик
Выбранный битрейт : 1024 kBit/s
Качество : Высокий
Добавление ID3-тэга : Да
Утилита сжатия : C:\Program Files\Exact Audio Copy\flac-1.2.0-win\bin\flac.exe
Дополнительные параметры : -8 -V -T "artist=%a" -T "title=%t" -T "album=%g" -T "date=%y" -T "tracknumber=%n" -T "genre=%m" -T "comment=Innochka" %s
TOC извлечённого CD
Трек | Старт | Длительность | Начальный сектор | Конечный сектор
---------------------------------------------------------------------
1 | 0:00.00 | 6:59.67 | 0 | 31491
2 | 6:59.67 | 3:24.53 | 31492 | 46844
3 | 10:24.45 | 9:25.07 | 46845 | 89226
4 | 19:49.52 | 6:10.13 | 89227 | 116989
5 | 25:59.65 | 5:37.72 | 116990 | 142336
6 | 31:37.62 | 3:24.38 | 142337 | 157674
7 | 35:02.25 | 7:06.15 | 157675 | 189639
8 | 42:08.40 | 4:05.15 | 189640 | 208029
9 | 46:13.55 | 9:03.45 | 208030 | 248799
10 | 55:17.25 | 5:30.47 | 248800 | 273596
11 | 60:47.72 | 5:05.70 | 273597 | 296541
Трек 1
Имя файла G:\Imidg\Новая папка\Ferenc Snetberger\+Ferenc Snetberger - The Budapest Concert\01 - Budapest Mood.wav
Пиковый уровень 38.7 %
Качество трека 100.0 %
CRC копии 04FE4AD0
Копирование... OK
Трек 2
Имя файла G:\Imidg\Новая папка\Ferenc Snetberger\+Ferenc Snetberger - The Budapest Concert\02 - Springtime In Winter.wav
Пиковый уровень 92.9 %
Качество трека 100.0 %
CRC копии 3B6041DD
Копирование... OK
Трек 3
Имя файла G:\Imidg\Новая папка\Ferenc Snetberger\+Ferenc Snetberger - The Budapest Concert\03 - Song To The East.wav
Пиковый уровень 64.6 %
Качество трека 100.0 %
CRC копии 0309590D
Копирование... OK
Трек 4
Имя файла G:\Imidg\Новая папка\Ferenc Snetberger\+Ferenc Snetberger - The Budapest Concert\04 - Brazil.wav
Пиковый уровень 72.5 %
Качество трека 100.0 %
CRC копии 7B4A6ACA
Копирование... OK
Трек 5
Имя файла G:\Imidg\Новая папка\Ferenc Snetberger\+Ferenc Snetberger - The Budapest Concert\05 - The Dolphin.wav
Пиковый уровень 38.8 %
Качество трека 100.0 %
CRC копии 97981968
Копирование... OK
Трек 6
Имя файла G:\Imidg\Новая папка\Ferenc Snetberger\+Ferenc Snetberger - The Budapest Concert\06 - Little Bossa.wav
Пиковый уровень 77.7 %
Качество трека 100.0 %
CRC копии 47A258B0
Копирование... OK
Трек 7
Имя файла G:\Imidg\Новая папка\Ferenc Snetberger\+Ferenc Snetberger - The Budapest Concert\07 - Variation (Dedicated To Django Rheinhardt).wav
Пиковый уровень 48.2 %
Качество трека 100.0 %
CRC копии A2307037
Копирование... OK
Трек 8
Имя файла G:\Imidg\Новая папка\Ferenc Snetberger\+Ferenc Snetberger - The Budapest Concert\08 - Tangoa Free.wav
Пиковый уровень 75.8 %
Качество трека 100.0 %
CRC копии 4801985F
Копирование... OK
Трек 9
Имя файла G:\Imidg\Новая папка\Ferenc Snetberger\+Ferenc Snetberger - The Budapest Concert\09 - Bossa For Egberto.wav
Пиковый уровень 97.9 %
Качество трека 99.9 %
CRC копии DCDAA241
Копирование... OK
Трек 10
Имя файла G:\Imidg\Новая папка\Ferenc Snetberger\+Ferenc Snetberger - The Budapest Concert\10 - Manha De Carnaval.wav
Пиковый уровень 25.3 %
Качество трека 100.0 %
CRC копии E7A54BF7
Копирование... OK
Трек 11
Имя файла G:\Imidg\Новая папка\Ferenc Snetberger\+Ferenc Snetberger - The Budapest Concert\11 - Budapest Encore.wav
Пиковый уровень 41.9 %
Качество трека 100.0 %
CRC копии 217A610D
Копирование... OK
Ошибок не произошло
Конец отчёта
REM GENRE Jazz
REM DATE 1996
REM DISCID 970F710B
REM COMMENT "ExactAudioCopy v0.99pb1"
PERFORMER "Ferenc Snetberger"
TITLE "The Budapest Concert"
FILE "01 - Budapest Mood.wav" WAVE
TRACK 01 AUDIO
TITLE "Budapest Mood"
PERFORMER "Ferenc Snetberger"
INDEX 01 00:00:00
TRACK 02 AUDIO
TITLE "Springtime In Winter"
PERFORMER "Ferenc Snetberger"
INDEX 00 06:56:65
FILE "02 - Springtime In Winter.wav" WAVE
INDEX 01 00:00:00
TRACK 03 AUDIO
TITLE "Song To The East"
PERFORMER "Ferenc Snetberger"
INDEX 00 03:21:25
FILE "03 - Song To The East.wav" WAVE
INDEX 01 00:00:00
TRACK 04 AUDIO
TITLE "Brazil"
PERFORMER "Ferenc Snetberger"
INDEX 00 09:19:45
FILE "04 - Brazil.wav" WAVE
INDEX 01 00:00:00
TRACK 05 AUDIO
TITLE "The Dolphin"
PERFORMER "Ferenc Snetberger"
INDEX 00 06:07:23
FILE "05 - The Dolphin.wav" WAVE
INDEX 01 00:00:00
TRACK 06 AUDIO
TITLE "Little Bossa"
PERFORMER "Ferenc Snetberger"
INDEX 00 05:35:27
FILE "06 - Little Bossa.wav" WAVE
INDEX 01 00:00:00
TRACK 07 AUDIO
TITLE "Variation (Dedicated To Django Rheinhardt)"
PERFORMER "Ferenc Snetberger"
INDEX 00 03:20:40
FILE "07 - Variation (Dedicated To Django Rheinhardt).wav" WAVE
INDEX 01 00:00:00
TRACK 08 AUDIO
TITLE "Tangoa Free"
PERFORMER "Ferenc Snetberger"
INDEX 00 07:02:60
FILE "08 - Tangoa Free.wav" WAVE
INDEX 01 00:00:00
TRACK 09 AUDIO
TITLE "Bossa For Egberto"
PERFORMER "Ferenc Snetberger"
INDEX 00 04:01:67
FILE "09 - Bossa For Egberto.wav" WAVE
INDEX 01 00:00:00
FILE "10 - Manha De Carnaval.wav" WAVE
TRACK 10 AUDIO
TITLE "Manha De Carnaval"
PERFORMER "Ferenc Snetberger"
INDEX 01 00:00:00
FILE "11 - Budapest Encore.wav" WAVE
TRACK 11 AUDIO
TITLE "Budapest Encore"
PERFORMER "Ferenc Snetberger"
INDEX 01 00:00:00
15:44
94
RSS
Нет комментариев. Ваш будет первым!