Поиск

1958 (1999) Art Blakey & The Jazz Messengers - Moanin'

1958 (1999) Art Blakey & The Jazz Messengers - Moanin'
Стили:
Страна-производитель диска (релиза):
USA
Дата записи диска:
30 октября 1958
Дата издания диска:
январь 1959
Дата переиздания диска:
23 марта 1999
Издатель (лейбл):
Номер по каталогу:
7243 4 95324 2 7
Носитель:
CD
Битрейт аудио:
lossless
Аудиокодек:
APE (*.ape)
Тип рипа:
image+.cue
Время звучания:
50:13
Треклист:

01. Warm-Up and Dialogue Between Lee and Rudy [bonus track] 0:35
02. Moanin' 9:30
03. Are You Real? 4:47
04. Along Came Betty 6:08
05. The Drum Thunder Suite 7:30
- First Theme: Drum Thunder
- Second Theme: Cry a Blue Tear
- Third Theme: Harlem's Disciples
06. Blues March 6:13
07. Come Rain or Come Shine 5:45
08. Moanin' (Alternate Take) [bonus track] 9:19

Состав:
Об альбоме (сборнике):
Full performer name: Art Blakey & The Jazz Messengers.The Rudy Van Gelder Edition of MOANIN' includes an essay by Bob Blumenthal.Producer: Alfred Lion.Reissue producer: Michael Cuscuna.Recorded at the Van Gelder Studio, Hackensack, New Jersey on October 30, 1958. Originally released on Blue Note (4003). Includes liner notes by Leonard Feather and Bob Blumenthal.Digitally remastered using 24-bit technology by Rudy Van Gelder (Van Gelder Studio, Englewood Cliffs, New Jersey).This is part of the Blue Note Rudy Van Gelder Editions series.
Лог создания рипа
Exact Audio Copy V0.99 prebeta 2 from 28. July 2007
Отчёт EAC об извлечении, выполненном 29. августа 2007, 21:23
Art Blakey & The Jazz Messengers / Moanin'
Дисковод: HL-DT-STDVDRAM GSA-4167B Adapter: 0 ID: 0
Режим чтения : Достоверность
Использование точного потока : Да
Отключение кэша аудио : Да
Использование указателей C2 : Нет
Коррекция смещения при чтении : 667
Способность читать области Lead-in и Lead-out : Нет
Заполнение пропущенных сэмплов тишиной : Да
Удаление блоков с тишиной в начале и конце : Нет
При вычислениях CRC использовались нулевые сэмплы : Да
Интерфейс : Установленный внешний ASPI-интерфейс
Выходной формат : Внутренние WAV-операции
Формат сэмплов : 44.100 Гц; 16 бит; стерео
TOC извлечённого CD
Трек | Старт | Длительность | Начальный сектор | Конечный сектор
---------------------------------------------------------------------
1 | 0:00.00 | 0:35.65 | 0 | 2689
2 | 0:35.65 | 9:35.10 | 2690 | 45824
3 | 10:11.00 | 4:50.42 | 45825 | 67616
4 | 15:01.42 | 6:12.21 | 67617 | 95537
5 | 21:13.63 | 7:33.47 | 95538 | 129559
6 | 28:47.35 | 6:17.07 | 129560 | 157841
7 | 35:04.42 | 5:49.31 | 157842 | 184047
8 | 40:53.73 | 9:19.11 | 184048 | 225983
Характеристики диапазона извлечения и сообщения об ошибках
Выбранный диапазон
Имя файла H:\Muzlo\JAZZ\BIG JAZZ\RIPER-CUTTER\Art Blakey & The Jazz Messengers - Moanin'.wav
Пиковый уровень 97.9 %
Качество диапазона 100.0 %
CRC копии 4C7345EF
Копирование... OK
Ошибок не произошло
AccurateRip: сводка
Трек 1 точное извлечение (доверие 5) [27536B4A]
Трек 2 точное извлечение (доверие 5) [56573CE7]
Трек 3 точное извлечение (доверие 5) [77F9A6AD]
Трек 4 точное извлечение (доверие 5) [C6F29210]
Трек 5 точное извлечение (доверие 5) [CABEDAD1]
Трек 6 точное извлечение (доверие 5) [3E2D023F]
Трек 7 точное извлечение (доверие 5) [940AFB6F]
Трек 8 точное извлечение (доверие 5) [376788FB]
Все треки извлечены точно
Конец отчёта
01:56
123
RSS
Нет комментариев. Ваш будет первым!