Поиск

1995 Toshiko Akiyoshi - Live at Maybeck Recital Hall, Vol. 36 {Concord Jazz} [CD]

1995 Toshiko Akiyoshi - Live at Maybeck Recital Hall, Vol. 36 {Concord Jazz} [CD]
Дата записи диска:
10 июля 1994
Место записи:
Maybeck Recital Hall, Berkeley, CA, USA
Издатель (лейбл):
Номер по каталогу:
CCD-4635
Носитель:
CD
Тип рипа:
tracks+.cue
Аудиокодек:
FLAC (*.flac)
Битрейт аудио:
lossless
Время звучания:
01:01:06
Наличие сканов:
да

01. The Village (6:15)
02. Come Sunday (4:52)
03. Con Alma (5:45)
04. Polka Dots And Moonbeams (7:20)
05. It Was A Very Good Year (5:52)
06. The Things We Did Last Summer (8:02)
07. Old Devil Moon (6:24)
08. Sophisticated Lady (6:22)
09. Quadrille, Anyone? (6:03)
10. Tempus Fugit (4:11)

Состав:
Лог создания рипа
Exact Audio Copy V1.0 beta 3 from 29. August 2011

EAC extraction logfile from 17. January 2015, 8:45

Toshiko Akiyoshi / Toshiko Akiyoshi At Maybeck

Used drive  : HL-DT-STDVD+-RW GH82N   Adapter: 0  ID: 2

Read mode               : Secure
Utilize accurate stream : Yes
Defeat audio cache      : Yes
Make use of C2 pointers : No

Read offset correction                      : 667
Overread into Lead-In and Lead-Out          : No
Fill up missing offset samples with silence : Yes
Delete leading and trailing silent blocks   : No
Null samples used in CRC calculations       : Yes
Used interface                              : Native Win32 interface for Win NT & 2000
Gap handling                                : Appended to previous track

Used output format              : User Defined Encoder
Selected bitrate                : 1024 kBit/s
Quality                         : High
Add ID3 tag                     : No
Command line compressor         : C:\Program Files (x86)\Exact Audio Copy\Flac\flac.exe
Additional command line options : -8 -V -T "ARTIST=%artist%" -T "TITLE=%title%" -T "ALBUM=%albumtitle%" -T "DATE=%year%" -T "TRACKNUMBER=%tracknr%" -T "GENRE=%genre%" -T "COMMENT=%comment%" -T "BAND=%albuminterpret%" -T "ALBUMARTIST=%albuminterpret%" -T "COMPOSER=%composer%" %haslyrics%--tag-from-file=LYRICS="%lyricsfile%"%haslyrics% -T "DISCNUMBER=%cdnumber%" -T "TOTALDISCS=%totalcds%" -T "TOTALTRACKS=%numtracks%" %hascover%--picture="%coverfile%"%hascover% %source% -o %dest%


TOC of the extracted CD

     Track |   Start  |  Length  | Start sector | End sector 
    ---------------------------------------------------------
        1  |  0:00.00 |  6:15.05 |         0    |    28129   
        2  |  6:15.05 |  4:51.72 |     28130    |    50026   
        3  | 11:07.02 |  5:45.05 |     50027    |    75906   
        4  | 16:52.07 |  7:19.65 |     75907    |   108896   
        5  | 24:11.72 |  5:52.03 |    108897    |   135299   
        6  | 30:04.00 |  8:02.05 |    135300    |   171454   
        7  | 38:06.05 |  6:24.02 |    171455    |   200256   
        8  | 44:30.07 |  6:22.05 |    200257    |   228911   
        9  | 50:52.12 |  6:02.73 |    228912    |   256134   
       10  | 56:55.10 |  4:10.47 |    256135    |   274931   


Track  1

     Filename C:\Rips\Toshiko Akiyoshi At Maybeck\01 The Village.wav

     Pre-gap length  0:00:02.00

     Peak level 84.6 %
     Extraction speed 2.0 X
     Track quality 100.0 %
     Copy CRC 426D55B7
     Accurately ripped (confidence 2)  [BA6299A5]  (AR v2)
     Copy OK

Track  2

     Filename C:\Rips\Toshiko Akiyoshi At Maybeck\02 Come Sunday.wav

     Peak level 67.1 %
     Extraction speed 2.3 X
     Track quality 100.0 %
     Copy CRC 7C944B0F
     Accurately ripped (confidence 2)  [4480E5A2]  (AR v2)
     Copy OK

Track  3

     Filename C:\Rips\Toshiko Akiyoshi At Maybeck\03 Con Alma.wav

     Peak level 99.7 %
     Extraction speed 2.6 X
     Track quality 100.0 %
     Copy CRC E1084EEE
     Accurately ripped (confidence 2)  [D0C7BF00]  (AR v2)
     Copy OK

Track  4

     Filename C:\Rips\Toshiko Akiyoshi At Maybeck\04 Polka Dots And Moonbeams.wav

     Peak level 88.6 %
     Extraction speed 2.7 X
     Track quality 99.9 %
     Copy CRC 1EBCCC29
     Accurately ripped (confidence 2)  [C7AB32C6]  (AR v2)
     Copy OK

Track  5

     Filename C:\Rips\Toshiko Akiyoshi At Maybeck\05 It Was A Very Good Year.wav

     Peak level 99.5 %
     Extraction speed 3.1 X
     Track quality 100.0 %
     Copy CRC FD2D47F2
     Accurately ripped (confidence 2)  [93CDC867]  (AR v2)
     Copy OK

Track  6

     Filename C:\Rips\Toshiko Akiyoshi At Maybeck\06 The Things We Did Last Summer.wav

     Peak level 66.6 %
     Extraction speed 3.2 X
     Track quality 99.9 %
     Copy CRC F9462AE4
     Accurately ripped (confidence 2)  [C0DEA41A]  (AR v2)
     Copy OK

Track  7

     Filename C:\Rips\Toshiko Akiyoshi At Maybeck\07 Old Devil Moon.wav

     Peak level 99.0 %
     Extraction speed 3.5 X
     Track quality 100.0 %
     Copy CRC C4E23436
     Accurately ripped (confidence 2)  [7B810B1C]  (AR v2)
     Copy OK

Track  8

     Filename C:\Rips\Toshiko Akiyoshi At Maybeck\08 Sophisticated Lady.wav

     Peak level 63.4 %
     Extraction speed 3.7 X
     Track quality 100.0 %
     Copy CRC B37A3801
     Accurately ripped (confidence 2)  [68D68442]  (AR v2)
     Copy OK

Track  9

     Filename C:\Rips\Toshiko Akiyoshi At Maybeck\09 Quadrille, Anyone.wav

     Peak level 76.7 %
     Extraction speed 3.9 X
     Track quality 100.0 %
     Copy CRC FEE435DF
     Accurately ripped (confidence 2)  [910D5663]  (AR v2)
     Copy OK

Track 10

     Filename C:\Rips\Toshiko Akiyoshi At Maybeck\10 Tempus Fugit.wav

     Peak level 90.6 %
     Extraction speed 3.9 X
     Track quality 100.0 %
     Copy CRC D13D5547
     Accurately ripped (confidence 2)  [3B533372]  (AR v2)
     Copy OK


All tracks accurately ripped

No errors occurred

End of status report

---- CUETools DB Plugin V2.1.3

[CTDB TOCID: ZklICVTUkwrHq4DrzTSGTblHv6o-] found, Submit result: ZklICVTUkwrHq4DrzTSGTblHv6o- has been confirmed
[06d2584e] (2/2) Accurately ripped


==== Log checksum 6B31A25C97C266442253EDB7B693552BF1B59FA1E09BF2EC6D32377C5A77A1E7 ====
Приватный:
Да (DHT отключён)
Размер:
249.82 Мб (261,954,852 байт) » файлов: 17
Участники:
2 раздают, 0 качают (2 участников всего)
Внешние участники:
--- [ Обновить ]
23:56
715
Нет комментариев. Ваш будет первым!