Поиск

1995 Glenn Miller - The Missing Chapters Vol. 4 The Red Cavalry March {AVID AMSC 559} [CD]

1995 Glenn Miller - The Missing Chapters Vol. 4 The Red Cavalry March {AVID AMSC 559} [CD]
Стили:
Дата записи диска:
22 января - 4 июня 1945
Номер по каталогу:
AMSC 559
Носитель:
CD
Тип рипа:
tracks
Аудиокодек:
FLAC (*.flac)
Битрейт аудио:
lossless
Время звучания:
01:34:37
Наличие сканов:
да
Страна-производитель диска (релиза):
USA
Релизёр (источник):
REDacted
Лог создания рипа
Exact Audio Copy V1.3 from 2. September 2016
EAC extraction logfile from 24. October 2017, 21:48
Glenn Miller / Vol.04 (The Red Cavalry March)
Used drive  : TSSTcorpCDDVDW SE-208AB   Adapter: 2  ID: 0
Read mode               : Secure
Utilize accurate stream : Yes
Defeat audio cache      : Yes
Make use of C2 pointers : No
Read offset correction                      : 6
Overread into Lead-In and Lead-Out          : No
Fill up missing offset samples with silence : Yes
Delete leading and trailing silent blocks   : No
Null samples used in CRC calculations       : Yes
Used interface                              : Installed external ASPI interface
Gap handling                                : Appended to previous track
Used output format              : User Defined Encoder
Selected bitrate                : 768 kBit/s
Quality                         : High
Add ID3 tag                     : No
Command line compressor         : C:\Program Files (x86)\Exact Audio Copy\Flac\flac.exe
Additional command line options : -8 -V -T "ARTIST=%artist%" -T "TITLE=%title%" -T "ALBUM=%albumtitle%" -T "DATE=%year%" -T "TRACKNUMBER=%tracknr%" -T "GENRE=%genre%" -T "COMMENT=%comment%" -T "BAND=%albuminterpret%" -T "ALBUMARTIST=%albuminterpret%" -T "COMPOSER=%composer%" %haslyrics%--tag-from-file=LYRICS="%lyricsfile%"%haslyrics% -T "DISCNUMBER=%cdnumber%" -T "TOTALDISCS=%totalcds%" -T "TOTALTRACKS=%numtracks%" %hascover%--picture="%coverfile%"%hascover% %source% -o %dest%
TOC of the extracted CD
     Track |   Start  |  Length  | Start sector | End sector 
    ---------------------------------------------------------
        1  |  0:00.00 |  0:47.67 |         0    |     3591   
        2  |  0:47.67 |  2:55.05 |      3592    |    16721   
        3  |  3:42.72 |  3:58.25 |     16722    |    34596   
        4  |  7:41.22 |  3:36.10 |     34597    |    50806   
        5  | 11:17.32 |  1:50.38 |     50807    |    59094   
        6  | 13:07.70 |  1:45.50 |     59095    |    67019   
        7  | 14:53.45 |  1:37.22 |     67020    |    74316   
        8  | 16:30.67 |  3:01.60 |     74317    |    87951   
        9  | 19:32.52 |  8:21.20 |     87952    |   125546   
       10  | 27:53.72 |  1:27.28 |    125547    |   132099   
       11  | 29:21.25 |  3:39.70 |    132100    |   148594   
       12  | 33:01.20 |  5:15.52 |    148595    |   172271   
       13  | 38:16.72 |  2:40.08 |    172272    |   184279   
       14  | 40:57.05 |  3:27.25 |    184280    |   199829   
       15  | 44:24.30 |  4:05.25 |    199830    |   218229   
       16  | 48:29.55 |  3:11.18 |    218230    |   232572   
       17  | 51:40.73 |  0:44.42 |    232573    |   235914   
       18  | 52:25.40 |  3:56.15 |    235915    |   253629   
       19  | 56:21.55 |  3:31.10 |    253630    |   269464   
       20  | 59:52.65 |  4:01.07 |    269465    |   287546   
       21  | 63:53.72 |  5:16.73 |    287547    |   311319   
       22  | 69:10.70 |  1:26.08 |    311320    |   317777   
Track  1
     Filename D:\Lietotājs\My Music\Flac\01. Moonlight Serenade.wav
     Pre-gap length  0:00:02.00
     Peak level 56.6 %
     Extraction speed 0.7 X
     Track quality 100.0 %
     Test CRC B12CF020
     Copy CRC B12CF020
     Accurately ripped (confidence 5)  [10F8483D]  (AR v2)
     Copy OK
Track  2
     Filename D:\Lietotājs\My Music\Flac\02. Song Of The Volga Boatmen.wav
     Peak level 81.2 %
     Extraction speed 1.1 X
     Track quality 100.0 %
     Test CRC 6A684EF9
     Copy CRC 6A684EF9
     Accurately ripped (confidence 5)  [50475D6C]  (AR v2)
     Copy OK
Track  3
     Filename D:\Lietotājs\My Music\Flac\03. Laura.wav
     Peak level 57.2 %
     Extraction speed 1.3 X
     Track quality 100.0 %
     Test CRC 97A611F1
     Copy CRC 97A611F1
     Accurately ripped (confidence 5)  [E0BE95E5]  (AR v2)
     Copy OK
Track  4
     Filename D:\Lietotājs\My Music\Flac\04. Get Happy.wav
     Peak level 93.7 %
     Extraction speed 1.2 X
     Track quality 99.9 %
     Test CRC F82E4D45
     Copy CRC F82E4D45
     Accurately ripped (confidence 5)  [AB43DE75]  (AR v2)
     Copy OK
Track  5
     Filename D:\Lietotājs\My Music\Flac\05. Drink To Me Only With Thine Eyes.wav
     Peak level 53.5 %
     Extraction speed 1.2 X
     Track quality 100.0 %
     Test CRC AAB75AB2
     Copy CRC AAB75AB2
     Accurately ripped (confidence 5)  [52A81BC2]  (AR v2)
     Copy OK
Track  6
     Filename D:\Lietotājs\My Music\Flac\06. There Goes That Song Again.wav
     Peak level 49.8 %
     Extraction speed 1.3 X
     Track quality 100.0 %
     Test CRC A9851307
     Copy CRC A9851307
     Accurately ripped (confidence 5)  [975B0808]  (AR v2)
     Copy OK
Track  7
     Filename D:\Lietotājs\My Music\Flac\07. Music Makers.wav
     Peak level 68.2 %
     Extraction speed 1.0 X
     Track quality 99.8 %
     Test CRC E65BC2EE
     Copy CRC E65BC2EE
     Accurately ripped (confidence 5)  [2C7F6C41]  (AR v2)
     Copy OK
Track  8
     Filename D:\Lietotājs\My Music\Flac\08. Farewell Blues.wav
     Peak level 70.2 %
     Extraction speed 1.5 X
     Track quality 100.0 %
     Test CRC CFC0557C
     Copy CRC CFC0557C
     Accurately ripped (confidence 5)  [6298287F]  (AR v2)
     Copy OK
Track  9
     Filename D:\Lietotājs\My Music\Flac\09. The Red Cavalry March.wav
     Peak level 78.0 %
     Extraction speed 1.8 X
     Track quality 100.0 %
     Test CRC 7B61ACBA
     Copy CRC 7B61ACBA
     Accurately ripped (confidence 5)  [A4358F60]  (AR v2)
     Copy OK
Track 10
     Filename D:\Lietotājs\My Music\Flac\10. I've Got Sixpence.wav
     Peak level 73.9 %
     Extraction speed 1.4 X
     Track quality 100.0 %
     Test CRC 73302235
     Copy CRC 73302235
     Accurately ripped (confidence 5)  [FA029428]  (AR v2)
     Copy OK
Track 11
     Filename D:\Lietotājs\My Music\Flac\11. A String Of Pearls.wav
     Peak level 75.3 %
     Extraction speed 1.8 X
     Track quality 100.0 %
     Test CRC 051926FE
     Copy CRC 051926FE
     Accurately ripped (confidence 5)  [065FF3C0]  (AR v2)
     Copy OK
Track 12
     Filename D:\Lietotājs\My Music\Flac\12. The Trolley Song.wav
     Peak level 78.1 %
     Extraction speed 1.6 X
     Track quality 99.9 %
     Test CRC FB078D62
     Copy CRC FB078D62
     Accurately ripped (confidence 5)  [3B09D7BB]  (AR v2)
     Copy OK
Track 13
     Filename D:\Lietotājs\My Music\Flac\13. Shoo Shoo Baby.wav
     Peak level 69.5 %
     Extraction speed 1.9 X
     Track quality 100.0 %
     Test CRC AA3153A9
     Copy CRC AA3153A9
     Accurately ripped (confidence 5)  [C4A8DB73]  (AR v2)
     Copy OK
Track 14
     Filename D:\Lietotājs\My Music\Flac\14. Time Along Will Tell.wav
     Peak level 68.5 %
     Extraction speed 2.0 X
     Track quality 100.0 %
     Test CRC 06797B4E
     Copy CRC 06797B4E
     Accurately ripped (confidence 5)  [69B494B8]  (AR v2)
     Copy OK
Track 15
     Filename D:\Lietotājs\My Music\Flac\15. My Guy's Come Back.wav
     Peak level 73.3 %
     Extraction speed 1.9 X
     Track quality 99.9 %
     Test CRC D175CA40
     Copy CRC D175CA40
     Accurately ripped (confidence 5)  [35AA8A15]  (AR v2)
     Copy OK
Track 16
     Filename D:\Lietotājs\My Music\Flac\16. Everybody Loves My Baby.wav
     Peak level 83.2 %
     Extraction speed 1.7 X
     Track quality 99.9 %
     Test CRC 78898E7F
     Copy CRC 78898E7F
     Accurately ripped (confidence 5)  [CF2387F2]  (AR v2)
     Copy OK
Track 17
     Filename D:\Lietotājs\My Music\Flac\17. Moonlight Serenade.wav
     Peak level 64.8 %
     Extraction speed 1.3 X
     Track quality 100.0 %
     Test CRC 7315A23B
     Copy CRC 7315A23B
     Accurately ripped (confidence 5)  [D1F7D5C1]  (AR v2)
     Copy OK
Track 18
     Filename D:\Lietotājs\My Music\Flac\18. Here We Go Again.wav
     Peak level 82.0 %
     Extraction speed 2.2 X
     Track quality 100.0 %
     Test CRC 98A2D6D2
     Copy CRC 98A2D6D2
     Accurately ripped (confidence 5)  [4FC3BDBA]  (AR v2)
     Copy OK
Track 19
     Filename D:\Lietotājs\My Music\Flac\19. I'll Be Seeing You.wav
     Peak level 57.4 %
     Extraction speed 1.9 X
     Track quality 99.9 %
     Test CRC 387C88CD
     Copy CRC 387C88CD
     Accurately ripped (confidence 5)  [0B3CEC1F]  (AR v2)
     Copy OK
Track 20
     Filename D:\Lietotājs\My Music\Flac\20. Swing Low Sweet Chariot.wav
     Peak level 62.1 %
     Extraction speed 2.3 X
     Track quality 100.0 %
     Test CRC 3DF4D4B6
     Copy CRC 3DF4D4B6
     Accurately ripped (confidence 5)  [125EDFF5]  (AR v2)
     Copy OK
Track 21
     Filename D:\Lietotājs\My Music\Flac\21. Poinciana.wav
     Peak level 77.2 %
     Extraction speed 2.4 X
     Track quality 100.0 %
     Test CRC 8CFF4A64
     Copy CRC 8CFF4A64
     Accurately ripped (confidence 5)  [17304D32]  (AR v2)
     Copy OK
Track 22
     Filename D:\Lietotājs\My Music\Flac\22. Moonlight Serenade.wav
     Peak level 55.7 %
     Extraction speed 1.9 X
     Track quality 100.0 %
     Test CRC CCB0943E
     Copy CRC CCB0943E
     Accurately ripped (confidence 5)  [C5EBCC3B]  (AR v2)
     Copy OK
All tracks accurately ripped
No errors occurred
End of status report
---- CUETools DB Plugin V2.1.6
[CTDB TOCID: hYGUbcsWNjcXGR.LwAmdiQ6rl0Q-] found
Submit result: hYGUbcsWNjcXGR.LwAmdiQ6rl0Q- has been confirmed
Track | CTDB Status
  1   | (6/6) Accurately ripped
  2   | (6/6) Accurately ripped
  3   | (6/6) Accurately ripped
  4   | (6/6) Accurately ripped
  5   | (6/6) Accurately ripped
  6   | (6/6) Accurately ripped
  7   | (6/6) Accurately ripped
  8   | (6/6) Accurately ripped
  9   | (6/6) Accurately ripped
 10   | (6/6) Accurately ripped
 11   | (6/6) Accurately ripped
 12   | (6/6) Accurately ripped
 13   | (6/6) Accurately ripped
 14   | (6/6) Accurately ripped
 15   | (6/6) Accurately ripped
 16   | (6/6) Accurately ripped
 17   | (6/6) Accurately ripped
 18   | (6/6) Accurately ripped
 19   | (6/6) Accurately ripped
 20   | (6/6) Accurately ripped
 21   | (6/6) Accurately ripped
 22   | (6/6) Accurately ripped
==== Log checksum CAF5E184CA9ABB1B5A7633E8AE4220C7441AE511B850751688251DB2148B5E25 ====
No seeders - write personal message to M0p94ok. Any questions - support@pro-jazz.com.
Нет сидеров - пишите в личку M0p94ok. Есть вопросы - support@pro-jazz.com
17:40
99
17:41