Поиск

1995 Arnett Cobb - Smooth Sailing (1995) {Prestige,OJC (OJCCD-323-2, P-7184)} [CD]

1995 Arnett Cobb - Smooth Sailing (1995) {Prestige,OJC (OJCCD-323-2, P-7184)} [CD]
Стили:
Дата записи диска:
27 февраля 1959
Место записи:
Hackensack, NJ
Дата издания диска:
1959
Дата переиздания диска:
1995
Издатель (лейбл):
Номер по каталогу:
OJCCD-323-2/P-7184
Носитель:
CD
Аудиокодек:
FLAC (*.flac)
Тип рипа:
tracks+.cue
Битрейт аудио:
lossless
Время звучания:
00:26:10
Наличие сканов:
да
Релизёр (источник):
сеть ed2k
Треклист:

1. Charmaine 04:26
2. Cobb's Mob 04:47
3. (i Don't Stand A) Ghost Of A Chance 04:47
4. Let's Split 03:47
5. Blues Around Dusk 08:21
6. Smooth Sailing 05:04
7. Blues In My Heart 05:37

Лог создания рипа
EAC extraction logfile from 9. December 2008, 12:41 for CD
Arnett Cobb / Smooth Sailing

Used drive : HL-DT-STDVDRAM GSA-4167B Adapter: 1 ID: 1
Read mode : Secure with NO C2, accurate stream, disable cache
Read offset correction : 667
Overread into Lead-In and Lead-Out : No

Used output format : Internal WAV Routines
44.100 Hz; 16 Bit; Stereo

Other options :
Fill up missing offset samples with silence : Yes
Delete leading and trailing silent blocks : No
Installed external ASPI interface

Track 1
Filename D:\Arnett Cobb - Smooth Sailing (1959)[FLAC]{OJC}\01 - Chairmaine.wav

Pre-gap length 0:00:02.00

Peak level 100.0 %
Track quality 100.0 %
Test CRC 09A7E2BF
Copy CRC 09A7E2BF
Copy OK

Track 2
Filename D:\Arnett Cobb - Smooth Sailing (1959)[FLAC]{OJC}\02 - Cobb's Mob.wav

Pre-gap length 0:00:01.70

Peak level 100.0 %
Track quality 99.9 %
Test CRC 2E158654
Copy CRC 2E158654
Copy OK

Track 3
Filename D:\Arnett Cobb - Smooth Sailing (1959)[FLAC]{OJC}\03 - I Don't Stand a Ghost of a Chance with You.wav

Pre-gap length 0:00:01.60

Peak level 100.0 %
Track quality 100.0 %
Test CRC E5D8E816
Copy CRC E5D8E816
Copy OK

Track 4
Filename D:\Arnett Cobb - Smooth Sailing (1959)[FLAC]{OJC}\04 - Let's Split.wav

Pre-gap length 0:00:02.05

Peak level 100.0 %
Track quality 100.0 %
Test CRC 4FB0CD6C
Copy CRC 4FB0CD6C
Copy OK

Track 5
Filename D:\Arnett Cobb - Smooth Sailing (1959)[FLAC]{OJC}\05 - Blues Around Dusk.wav

Pre-gap length 0:00:02.30

Peak level 100.0 %
Track quality 99.9 %
Test CRC CF37014F
Copy CRC CF37014F
Copy OK

Track 6
Filename D:\Arnett Cobb - Smooth Sailing (1959)[FLAC]{OJC}\06 - Smooth Sailing.wav

Pre-gap length 0:00:02.30

Peak level 100.0 %
Track quality 100.0 %
Test CRC 1FD3C7E9
Copy CRC 1FD3C7E9
Copy OK

Track 7
Filename D:\Arnett Cobb - Smooth Sailing (1959)[FLAC]{OJC}\07 - (I'm Left With the) Blues in My Heart.wav

Pre-gap length 0:00:02.02

Peak level 100.0 %
Track quality 100.0 %
Test CRC 40EF7888
Copy CRC 40EF7888
Copy OK

No errors occured

End of status report
Содержание индексной карты (.CUE)
REM GENRE Jazz
REM DATE 1959
REM DISCID 5F08A307
REM COMMENT "ExactAudioCopy v0.95b2"
PERFORMER "Arnett Cobb"
TITLE "Smooth Sailing"
FILE "01 - Chairmaine.wav" WAVE
  TRACK 01 AUDIO
    TITLE "Chairmaine"
    PERFORMER "Arnett Cobb"
    INDEX 01 00:00:00
  TRACK 02 AUDIO
    TITLE "Cobb's Mob"
    PERFORMER "Arnett Cobb"
    INDEX 00 04:24:68
FILE "02 - Cobb's Mob.wav" WAVE
    INDEX 01 00:00:00
  TRACK 03 AUDIO
    TITLE "I Don't Stand a Ghost of a Chance with You"
    PERFORMER "Arnett Cobb"
    INDEX 00 04:45:30
FILE "03 - I Don't Stand a Ghost of a Chance with You.wav" WAVE
    INDEX 01 00:00:00
  TRACK 04 AUDIO
    TITLE "Let's Split"
    PERFORMER "Arnett Cobb"
    INDEX 00 04:44:72
FILE "04 - Let's Split.wav" WAVE
    INDEX 01 00:00:00
  TRACK 05 AUDIO
    TITLE "Blues Around Dusk"
    PERFORMER "Arnett Cobb"
    INDEX 00 03:45:43
FILE "05 - Blues Around Dusk.wav" WAVE
    INDEX 01 00:00:00
  TRACK 06 AUDIO
    TITLE "Smooth Sailing"
    PERFORMER "Arnett Cobb"
    INDEX 00 08:18:52
FILE "06 - Smooth Sailing.wav" WAVE
    INDEX 01 00:00:00
  TRACK 07 AUDIO
    TITLE "(I'm Left With the) Blues in My Heart"
    PERFORMER "Arnett Cobb"
    INDEX 00 05:02:13
FILE "07 - (I'm Left With the) Blues in My Heart.wav" WAVE
    INDEX 01 00:00:00
Лог проверки качества
AUDIOCHECKER v2.0 beta (build 457) - by Dester - opdester@freemail.hu
~~~~~~~~~~~~~~~~~~~~~~~~~~~~~~~~~~

Started at: пятница, 02. 07. 2010. - 0:01.44
7 files found

1 -===- F:\Upload\Arnett Cobb - Smooth Sailing (1959)[OJC]\01 - Chairmaine.flac
Extracted successfully
Conclusion: this track is CDDA with probability 100%
Tempfile successfully deleted.

2 -===- F:\Upload\Arnett Cobb - Smooth Sailing (1959)[OJC]\02 - Cobb's Mob.flac
Extracted successfully
Conclusion: this track is CDDA with probability 100%
Tempfile successfully deleted.

3 -===- F:\Upload\Arnett Cobb - Smooth Sailing (1959)[OJC]\03 - I Don't Stand a Ghost of a Chance with You.flac
Extracted successfully
Conclusion: this track is CDDA with probability 99%
Tempfile successfully deleted.

4 -===- F:\Upload\Arnett Cobb - Smooth Sailing (1959)[OJC]\04 - Let's Split.flac
Extracted successfully
Conclusion: this track is CDDA with probability 100%
Tempfile successfully deleted.

5 -===- F:\Upload\Arnett Cobb - Smooth Sailing (1959)[OJC]\05 - Blues Around Dusk.flac
Extracted successfully
Conclusion: this track is CDDA with probability 100%
Tempfile successfully deleted.

6 -===- F:\Upload\Arnett Cobb - Smooth Sailing (1959)[OJC]\06 - Smooth Sailing.flac
Extracted successfully
Conclusion: this track is CDDA with probability 100%
Tempfile successfully deleted.

7 -===- F:\Upload\Arnett Cobb - Smooth Sailing (1959)[OJC]\07 - (I'm Left With the) Blues in My Heart.flac
Extracted successfully
Conclusion: this track is CDDA with probability 99%
Tempfile successfully deleted.
Приватный:
Нет (DHT включён)
Размер:
239.06 Мб (250,674,514 байт) » файлов: 14
Участники:
13 раздают, 0 качают (13 участников всего)
Внешние участники:
2 раздают, 1 качают (3 участников всего) [ Обновить ]
Никого нет на раздаче - пишите личное сообщение M0p94ok
No seeders - write personal message to M0p94ok
09:18
30
Нет комментариев. Ваш будет первым!