Вы используете незарегистрированную версию компонента "Вкладки"!

Поиск

1994 Toshiko Akiyoshi Jazz Orchestra - Desert Lady - Fantasy [CD]

1994 Toshiko Akiyoshi Jazz Orchestra - Desert Lady - Fantasy [CD]
Стили:
Доп. инфо:

Дата записи: Clinton Recording, New York, NY, 1993 December 1, - December 3
Оригинал: Columbia CK-57856
Дата переиздания: 1994
Производитель диска: Sony 57856
Аудио кодек: FLAC
Тип рипа: (tracks + .cue)
Битрейт аудио: lossless
Включает: Full artwork
Продолжительность: 57:22
Источник: коллекция Л.Рендера
Риппер: Musicgate

Лог создания рипа
EAC extraction logfile from 3. December 2007, 11:15 for CD
Toshiko Akiyoshi Jazz Orchestra / Desert Lady - Fantasy
Used drive  : Optiarc DVD RW AD-5170A   Adapter: 1  ID: 0
Read mode   : Secure with NO C2, accurate stream, disable cache
Read offset correction : 48
Overread into Lead-In and Lead-Out : No
Used output format : D:\tools\FLAC\flac.exe   (User Defined Encoder)
                     128 kBit/s
                     Additional command line options : -V -8 -T "artist=%a" -T "title=%t" -T "album=%g" -T "date=%y" -T "tracknumber=%n" -T "genre=%m" %s
Other options      :
    Fill up missing offset samples with silence : Yes
    Delete leading and trailing silent blocks : No
    Native Win32 interface for Win NT & 2000
Track  1
     Filename D:\0\Toshiko Akiyoshi Jazz Orchestra - Desert Lady - Fantasy (1994) [FLAC]\01 - Harlequin Tears.wav
     Pre-gap length  0:00:02.00
     Peak level 97.8 %
     Track quality 100.0 %
     Test CRC FB08E8F3
     Copy CRC FB08E8F3
     Copy OK
Track  2
     Filename D:\0\Toshiko Akiyoshi Jazz Orchestra - Desert Lady - Fantasy (1994) [FLAC]\02 - Desert Lady - Fantasy.wav
     Peak level 98.1 %
     Track quality 100.0 %
     Test CRC CED42816
     Copy CRC CED42816
     Copy OK
Track  3
     Filename D:\0\Toshiko Akiyoshi Jazz Orchestra - Desert Lady - Fantasy (1994) [FLAC]\03 - Hangin' Loose.wav
     Peak level 96.8 %
     Track quality 99.9 %
     Test CRC 06B4249B
     Copy CRC 06B4249B
     Copy OK
Track  4
     Filename D:\0\Toshiko Akiyoshi Jazz Orchestra - Desert Lady - Fantasy (1994) [FLAC]\04 - Hiroko's Delight.wav
     Peak level 98.7 %
     Track quality 100.0 %
     Test CRC C8E34BE8
     Copy CRC C8E34BE8
     Copy OK
Track  5
     Filename D:\0\Toshiko Akiyoshi Jazz Orchestra - Desert Lady - Fantasy (1994) [FLAC]\05 - Broken Dreams.wav
     Peak level 98.5 %
     Track quality 99.6 %
     Test CRC C5AF372F
     Copy CRC C5AF372F
     Copy OK
Track  6
     Filename D:\0\Toshiko Akiyoshi Jazz Orchestra - Desert Lady - Fantasy (1994) [FLAC]\06 - Bebop.wav
     Peak level 98.4 %
     Track quality 100.0 %
     Test CRC 9DBCF17F
     Copy CRC 9DBCF17F
     Copy OK
No errors occured
End of status report
Лог проверки качества
3349128742 87341564 01 - Harlequin Tears.wav
2123352980 165703148 02 - Desert Lady - Fantasy.wav
3666741780 101978060 03 - Hangin' Loose.wav
3530172665 93315644 04 - Hiroko's Delight.wav
2568781009 89277260 05 - Broken Dreams.wav
2086365627 70122572 06 - Bebop.wav
auCDtect: CD records authenticity detector, version 0.8.2
Copyright (c) 2004 Oleg Berngardt. All rights reserved.
Copyright (c) 2004 Alexander Djourik. All rights reserved.
------------------------------------------------------------
Processing file: [01 - Harlequin Tears.wav]
------------------------------------------------------------
This track looks like CDDA with probability 100%
------------------------------------------------------------
Processing file: [02 - Desert Lady - Fantasy.wav]
------------------------------------------------------------
This track looks like CDDA with probability 100%
------------------------------------------------------------
Processing file: [03 - Hangin' Loose.wav]
------------------------------------------------------------
This track looks like CDDA with probability 100%
------------------------------------------------------------
Processing file: [04 - Hiroko's Delight.wav]
------------------------------------------------------------
This track looks like CDDA with probability 100%
------------------------------------------------------------
Processing file: [05 - Broken Dreams.wav]
------------------------------------------------------------
This track looks like CDDA with probability 100%
------------------------------------------------------------
Processing file: [06 - Bebop.wav]
------------------------------------------------------------
This track looks like CDDA with probability 100%
------------------------------------------------------------
Final Conclusion:
------------------------------------------------------------
These tracks looks like CDDA with probability 100%
Any questions - support@pro-jazz.com. Есть вопросы - support@pro-jazz.com
18:10
235
Нет комментариев. Ваш будет первым!