Поиск

1994 Mark Nauseef - Personal Note {Jimco JICK-89727} [CD]

1994 Mark Nauseef - Personal Note {Jimco JICK-89727} [CD]

Треклист:

1. Chemistry 4:08
2. Talking Drum (For Ariel) 3:28
3. Doctor Marathon Part I 3:57
4. Doctor Marathon Part II 8:29
5. Corsica 10:54
6. Fillmore 10:42

Состав:
  • Mark Nauseef — Drums, Tuned Gong, Kalimba, Tam-tams, Wood Block, Woodblocks, Cup-chimes, "Industrial Surfaces", Voice
  • Joachim Kühn — Acoustic Piano, Roland Jupitar-4, Fender Rhodes, Arp Sixteen Voice Electric Piano, Alto Sax
  • Trilok Gurtu — Tabla, Congas, Caxixi, Water Instruments, Anklung, Log Drums, Pans, Metal Plates, Shells, Beads, Triangle, Cowbell, Rattle, Whistle, Handbells, Voice
  • Jan Akkerman — Guitar on "4 and 6"
  • George Kochbeck — Synthesizer [Moog Bass], Clavinet [Hohner D-6], Electric Piano [Fender Rhodes] on "3"
  • Detlef Beier — Acoustic bass on "3 and 5"
  • Philip Lynott — Vocals on "1"
Доп. инфо:

Страна-производитель диска: Japan
Год издания: 1994
Издатель (лейбл): Jimco Records
Номер по каталогу: JICK-89727
Страна: U.S.A.
Аудиокодек: FLAC (*.flac)
Тип рипа: image+.cue
Битрейт аудио: lossless
Продолжительность: 41:53
Источник (релизер): Rip с фирменного CD из собственной коллекции ewgensubaru
Наличие сканов в содержимом раздачи: да

Лог создания рипа
Exact Audio Copy V1.3 from 2. September 2016

Отчёт EAC об извлечении, выполненном 15. апреля 2019, 11:23

Mark Nauseef / Personal Note (Japan JICK-89727) - 1981

Дисковод: PIONEER BD-RW   BDR-TD03   Adapter: 1  ID: 0

Режим чтения                 : Достоверность
Использование точного потока : Да
Отключение кэша аудио        : Да
Использование указателей C2  : Нет

Коррекция смещения при чтении                     : 667
Способность читать области Lead-in и Lead-out     : Нет
Заполнение пропущенных сэмплов тишиной            : Да
Удаление блоков с тишиной в начале и конце        : Нет
При вычислениях CRC использовались нулевые сэмплы : Да
Интерфейс                                         : Встроенный Win32-интерфейс для Win NT/2000

Выходной формат          : Пользовательский кодировщик
Выбранный битрейт        : 128 kBit/s
Качество                 : Высокий
Добавление ID3-тега      : Нет
Утилита сжатия           : C:\Program Files (x86)\Exact Audio Copy\Flac\flac.exe
Дополнительные параметры : -V -8 -T "Date=%year%" -T "Genre=%genre%" %source%

TOC извлечённого CD

     Трек |   Старт  | Длительность | Начальный сектор | Конечный сектор
    ---------------------------------------------------------------------
       1  |  0:00.00 |    4:10.70   |           0      |      18819
       2  |  4:10.70 |    3:27.40   |       18820      |      34384
       3  |  7:38.35 |    3:59.45   |       34385      |      52354
       4  | 11:38.05 |    8:32.32   |       52355      |      90786
       5  | 20:10.37 |   10:57.38   |       90787      |     140099
       6  | 31:08.00 |   10:45.00   |      140100      |     188474

Характеристики диапазона извлечения и сообщения об ошибках

Выбранный диапазон

     Имя файла I:\Rip\Mark Nauseef - Personal Note (Japan JICK-89727) - 1981\Mark Nauseef - Personal Note (Japan JICK-89727) - 1981.wav

     Пиковый уровень 100.0 %
     Скорость извлечения 4.1 X
     Качество диапазона 100.0 %
     CRC теста 99217DCD
     CRC копии 99217DCD
     Копирование... OK

Ошибок не произошло

AccurateRip: сводка

Трек  1  : извлечено точно (доверие 2)  [AB0FA2F9]  (AR v1)
Трек  2  : извлечено точно (доверие 2)  [2C859B0F]  (AR v1)
Трек  3  : извлечено точно (доверие 2)  [57D6DC0A]  (AR v1)
Трек  4  : извлечено точно (доверие 2)  [2208BB8A]  (AR v1)
Трек  5  : извлечено точно (доверие 2)  [40A40F3C]  (AR v1)
Трек  6  : извлечено точно (доверие 2)  [1AB6D566]  (AR v1)

Все треки извлечены точно

Конец отчёта

---- CUETools DB Plugin V2.1.6

[CTDB TOCID: d42fYL7eEBd.zSxTNVZY2hP4TbY-] disk not present in database
Submit result: d42fYL7eEBd.zSxTNVZY2hP4TbY- has been uploaded

==== Контрольная сумма отчёта 912805932AEE2E7110D8060CBFAB27C96D3C2C18CACC8A53325E06F09C2914D7 ====
Download available for power users only.
To become a power user - read FAQ.
02:54
588
Нет комментариев. Ваш будет первым!