Поиск

1994 Allstars Bands Of George Masso, Randy Sandke & Ed Polcer - Jazz Live At The Musikhalle - One, Two, Three {Nagel Heyer CD008} [CD]

1994 Allstars Bands Of George Masso, Randy Sandke & Ed Polcer - Jazz Live At The Musikhalle - One, Two, Three {Nagel Heyer CD008} [CD]
Стили:
Издатель (лейбл):
Номер по каталогу:
CD 008
01. Fascinating Rhythm (8:18)
02. Liza (3:47)
03. The Half Of It Deary Blues (5:36)
04. Who Cares (So Long As You Care For Me) (7:25)
05. There Ain't No Sweet Man (4:23)
06. Mississippi Mud (2:21)
07. In A Mist / Candlelight (5:36)
08. I Would Do Most Anything For You (7:37)
09. I Can't Give You Anything But Love (4:04)
10. Have You Met Miss Jones (3:13)
11. Louisiana (8:36)
12. Jitterbug Waltz (4:58)
13. Sentimental Journey (3:03)
14. Mandy Make Up Your Mind (7:15)
Состав:
  • George Masso
  • Randy Sandke
  • Ed Polcer
  • Kenny Davern
  • Danny Moss
  • Dan Barrett
  • Ken Peplowski
  • Scott Robinson
  • Marty Grosz
  • Bob Havens
Лог создания рипа
Exact Audio Copy V1.0 beta 1 from 15. November 2010
EAC extraction logfile from 21. June 2011, 15:57
 Allstars Bands Of George Masso, Randy Sandke & Ed Polcer / Jazz Live At The Musikhalle - One, Two, Three
Used drive  : HL-DT-STDVDRAM GH22NS40   Adapter: 5  ID: 0
Read mode               : Secure
Utilize accurate stream : Yes
Defeat audio cache      : Yes
Make use of C2 pointers : No
Read offset correction                      : 667
Overread into Lead-In and Lead-Out          : No
Fill up missing offset samples with silence : Yes
Delete leading and trailing silent blocks   : No
Null samples used in CRC calculations       : Yes
Used interface                              : Native Win32 interface for Win NT & 2000
Used output format              : User Defined Encoder
Selected bitrate                : 1024 kBit/s
Quality                         : High
Add ID3 tag                     : No
Command line compressor         : C:\Program Files (x86)\Exact Audio Copy\FLAC\FLAC.EXE
Additional command line options : -6 -V -T "ARTIST=%a" -T "TITLE=%t" -T "ALBUM=%g" -T "DATE=%y" -T "TRACKNUMBER=%n" -T "GENRE=%m" -T "COMMENT=%e" %j--picture="%i"%j %s -o %d
TOC of the extracted CD
     Track |   Start  |  Length  | Start sector | End sector
    ---------------------------------------------------------
        1  |  0:00.32 |  8:17.40 |        32    |    37346
        2  |  8:17.72 |  3:47.28 |     37347    |    54399
        3  | 12:05.25 |  5:36.27 |     54400    |    79626
        4  | 17:41.52 |  7:25.15 |     79627    |   113016
        5  | 25:06.67 |  4:23.20 |    113017    |   132761
        6  | 29:30.12 |  2:21.35 |    132762    |   143371
        7  | 31:51.47 |  5:36.35 |    143372    |   168606
        8  | 37:28.07 |  7:36.58 |    168607    |   202864
        9  | 45:04.65 |  4:03.72 |    202865    |   221161
       10  | 49:08.62 |  3:13.18 |    221162    |   235654
       11  | 52:22.05 |  8:36.12 |    235655    |   274366
       12  | 60:58.17 |  4:58.35 |    274367    |   296751
       13  | 65:56.52 |  3:02.73 |    296752    |   310474
       14  | 68:59.50 |  7:14.57 |    310475    |   343081
Range status and errors
Selected range
     Filename T:\Allstars Bands Of George Masso, Randy Sandke & Ed Polcer - Jazz Live At The Musikhalle - One, Two, Three.wav
     Peak level 100.0 %
     Extraction speed 0.2 X
     Range quality 100.0 %
     Copy CRC 83A5FA2E
     Copy OK
No errors occurred
AccurateRip summary
Track  1  not present in database
Track  2  not present in database
Track  3  not present in database
Track  4  not present in database
Track  5  not present in database
Track  6  not present in database
Track  7  not present in database
Track  8  not present in database
Track  9  not present in database
Track 10  not present in database
Track 11  not present in database
Track 12  not present in database
Track 13  not present in database
Track 14  not present in database
None of the tracks are present in the AccurateRip database
End of status report
==== Log checksum 060328434C696C03DB04C440DF5D85A10EA47F05C3AE8F0A2740E520C70271D2 ====
Содержание индексной карты (.CUE)
REM GENRE Jazz
REM DATE 1994
REM DISCID C511DE0E
REM COMMENT "ExactAudioCopy v1.0b1"
PERFORMER " Allstars Bands Of George Masso, Randy Sandke & Ed Polcer"
TITLE "Jazz Live At The Musikhalle - One, Two, Three"
FILE "Allstars Bands - One, Two, Three.flac" WAVE
  TRACK 01 AUDIO
    TITLE "Fascinating Rhythm"
    PERFORMER " Allstars Bands Of George Masso, Randy Sandke & Ed Polcer"
    INDEX 00 00:00:00
    INDEX 01 00:00:32
  TRACK 02 AUDIO
    TITLE "Liza"
    PERFORMER " Allstars Bands Of George Masso, Randy Sandke & Ed Polcer"
    INDEX 00 08:16:67
    INDEX 01 08:17:72
  TRACK 03 AUDIO
    TITLE "The Half Of It Deary Blues"
    PERFORMER " Allstars Bands Of George Masso, Randy Sandke & Ed Polcer"
    INDEX 00 12:04:52
    INDEX 01 12:05:25
  TRACK 04 AUDIO
    TITLE "Who Cares (So Long As You Care For Me)"
    PERFORMER " Allstars Bands Of George Masso, Randy Sandke & Ed Polcer"
    INDEX 00 17:40:35
    INDEX 01 17:41:52
  TRACK 05 AUDIO
    TITLE "There Ain't No Sweet Man"
    PERFORMER " Allstars Bands Of George Masso, Randy Sandke & Ed Polcer"
    INDEX 00 25:06:07
    INDEX 01 25:06:67
  TRACK 06 AUDIO
    TITLE "Mississippi Mud"
    PERFORMER " Allstars Bands Of George Masso, Randy Sandke & Ed Polcer"
    INDEX 01 29:30:12
  TRACK 07 AUDIO
    TITLE "In A Mist / Candlelight"
    PERFORMER " Allstars Bands Of George Masso, Randy Sandke & Ed Polcer"
    INDEX 00 31:50:45
    INDEX 01 31:51:47
  TRACK 08 AUDIO
    TITLE "I Would Do Most Anything For You"
    PERFORMER " Allstars Bands Of George Masso, Randy Sandke & Ed Polcer"
    INDEX 00 37:27:02
    INDEX 01 37:28:07
  TRACK 09 AUDIO
    TITLE "I Can't Give You Anything But Love"
    PERFORMER " Allstars Bands Of George Masso, Randy Sandke & Ed Polcer"
    INDEX 01 45:04:65
  TRACK 10 AUDIO
    TITLE "Have You Met Miss Jones"
    PERFORMER " Allstars Bands Of George Masso, Randy Sandke & Ed Polcer"
    INDEX 01 49:08:62
  TRACK 11 AUDIO
    TITLE "Louisiana"
    PERFORMER " Allstars Bands Of George Masso, Randy Sandke & Ed Polcer"
    INDEX 00 52:21:50
    INDEX 01 52:22:05
  TRACK 12 AUDIO
    TITLE "Jitterbug Waltz"
    PERFORMER " Allstars Bands Of George Masso, Randy Sandke & Ed Polcer"
    INDEX 00 60:57:06
    INDEX 01 60:58:17
  TRACK 13 AUDIO
    TITLE "Sentimental Journey"
    PERFORMER " Allstars Bands Of George Masso, Randy Sandke & Ed Polcer"
    INDEX 01 65:56:52
  TRACK 14 AUDIO
    TITLE "Mandy Make Up Your Mind"
    PERFORMER " Allstars Bands Of George Masso, Randy Sandke & Ed Polcer"
    INDEX 01 68:59:50
00:13
820
Нет комментариев. Ваш будет первым!