Поиск

1994 Alix Combelle - 1940-1941 {The Chronological Classics 751} [CD]

1994 Alix Combelle - 1940-1941 {The Chronological Classics 751} [CD]
Стили:
Дата записи диска:
October 21, 1940 - March 12, 1941
Издатель (лейбл):
Носитель:
CD
Тип рипа:
tracks+.cue
Аудиокодек:
FLAC (*.flac)
Битрейт аудио:
lossless
Наличие сканов:
только обложка

 

This album is available on our DC++ hub: dc.pro-jazz.com
Этот альбом доступен на нашем DC++ хабе: dc.pro-jazz.com

01. Joyeuse fumee (Holy Smoke) (2:43)
02. Tiger Rag (2:49)
03. Quatre tickets (2:37)
04. Cascades (2:53)
05. Reflets (2:48)
06. Onze heures vingt (3:22)
07. Sur les bords de l'Alamo (On the Alamo) (3:16)
08. L'horloge de grand-pere (Grandfather's Clock) (2:54)
09. Parade des remparts du sud (South Rampart Street Parade) (2:45)
10. Fou (Mad) (2:33)
11. En souvenir (In a Mist) (4:19)
12. Midi a Jalopi (12 O'clock in Jalopi) (2:38)
13. Hier et aujourd'hui (Sent for You Yesterday) (2:38)
14. Ambiance (In the Mood) (3:19)
15. Pour danseurs seulement (For Dancers Only) (2:55)
16. Divertissement dans une fonderie (2:42)
17. Strictement pour les Persans (Strictly for the Persians) (2:44)
18. Verlaine (3:19)
19. Mr. Jinx (Mr. Mysterioso) (2:40)
20. Passe-temps a Hollywood (Hollywood Pasttime) (2:53)

Состав:
  • Ralph Gordon - Arranger
  • Alix Combelle - Arranger, Clarinet, Composer, Director, Sax (Alto), Sax (Tenor)
  • Raymond Wrascoff - Arranger, Piano
  • Francis Luca - Bass
  • Tony Rovira - Bass
  • Christian Wagner - Clarinet, Sax (Alto)
  • Pierre Fouad - Drums
  • Armand Molinetti - Drums
  • Django Reinhardt - Guitar
  • Joseph Reinhardt -  Guitar
  • Anatol Schenker - Liner Notes
  • Paul Collot - Piano
  • Max Blanc - Sax (Alto)
  • Marcel Coestier - Sax (Alto)
  • Charles Lee - Sax (Alto)
  • Charles Lisee - Sax (Alto)
  • Noël Chilboust - Sax (Tenor)
  • Charles Hary - Sax (Tenor)
  • Jean Luino - Sax (Tenor)
  • Hubert Rostaing - Sax (Tenor)
  • Eugene d'Hellemmes - Trombone
  • Maurice Gladieu - Trombone
  • Aimé Barelli - Trumpet
  • Christian Bellest - Trumpet
Лог создания рипа
Exact Audio Copy V1.0 beta 3 from 29. August 2011

EAC extraction logfile from 27. August 2012, 5:56

Alix Combelle / 1940 - 1941

Used drive  : HL-DT-STDVDRAM GT20N   Adapter: 2  ID: 0

Read mode               : Secure
Utilize accurate stream : Yes
Defeat audio cache      : Yes
Make use of C2 pointers : No

Read offset correction                      : 667
Overread into Lead-In and Lead-Out          : No
Fill up missing offset samples with silence : Yes
Delete leading and trailing silent blocks   : No
Null samples used in CRC calculations       : Yes
Used interface                              : Native Win32 interface for Win NT & 2000
Gap handling                                : Appended to previous track

Used output format              : User Defined Encoder
Selected bitrate                : 1024 kBit/s
Quality                         : High
Add ID3 tag                     : No
Command line compressor         : C:\Program Files (x86)\Exact Audio Copy\Flac\flac.exe
Additional command line options : -8 -V -T "ARTIST=%artist%" -T "TITLE=%title%" -T "ALBUM=%albumtitle%" -T "DATE=%year%" -T "TRACKNUMBER=%tracknr%" -T "GENRE=%genre%" -T "PERFORMER=%albuminterpret%" -T "COMPOSER=%composer%" %haslyrics%--tag-from-file=LYRICS="%lyricsfile%"%haslyrics% -T "ALBUMARTIST=%albumartist%" -T "DISCNUMBER=%cdnumber%" -T "TOTALDISCS=%totalcds%" -T "TOTALTRACKS=%numtracks%" -T "COMMENT=%comment%" %source% -o %dest%

TOC of the extracted CD

     Track |   Start  |  Length  | Start sector | End sector
    ---------------------------------------------------------
        1  |  0:00.33 |  2:42.65 |        33    |    12247
        2  |  2:43.23 |  2:48.42 |     12248    |    24889
        3  |  5:31.65 |  2:37.15 |     24890    |    36679
        4  |  8:09.05 |  2:52.43 |     36680    |    49622
        5  | 11:01.48 |  2:47.67 |     49623    |    62214
        6  | 13:49.40 |  3:21.48 |     62215    |    77337
        7  | 17:11.13 |  3:15.42 |     77338    |    92004
        8  | 20:26.55 |  2:54.13 |     92005    |   105067
        9  | 23:20.68 |  2:44.55 |    105068    |   117422
       10  | 26:05.48 |  2:32.67 |    117423    |   128889
       11  | 28:38.40 |  4:18.70 |    128890    |   148309
       12  | 32:57.35 |  2:37.30 |    148310    |   160114
       13  | 35:34.65 |  2:37.60 |    160115    |   171949
       14  | 38:12.50 |  3:18.38 |    171950    |   186837
       15  | 41:31.13 |  2:54.42 |    186838    |   199929
       16  | 44:25.55 |  2:41.50 |    199930    |   212054
       17  | 47:07.30 |  2:43.68 |    212055    |   224347
       18  | 49:51.23 |  3:19.07 |    224348    |   239279
       19  | 53:10.30 |  2:39.53 |    239280    |   251257
       20  | 55:50.08 |  2:52.35 |    251258    |   264192

Track  1

     Filename E:\Alix Combelle - 1940-1941 (1994) [FLAC] {Chronological Classics 751}\01 - Alix Combelle Et Son Orchestre - Joyeuse Fumee (Holy Smoke).wav

     Pre-gap length  0:00:02.44

     Peak level 83.2 %
     Extraction speed 2.2 X
     Track quality 100.0 %
     Test CRC 5E800F71
     Copy CRC 5E800F71
     Track not present in AccurateRip database
     Copy OK

Track  2

     Filename E:\Alix Combelle - 1940-1941 (1994) [FLAC] {Chronological Classics 751}\02 - Alix Combelle Et Son Orchestre - Tiger Rag.wav

     Pre-gap length  0:00:01.73

     Peak level 99.2 %
     Extraction speed 2.4 X
     Track quality 100.0 %
     Test CRC 3D7697EA
     Copy CRC 3D7697EA
     Track not present in AccurateRip database
     Copy OK

Track  3

     Filename E:\Alix Combelle - 1940-1941 (1994) [FLAC] {Chronological Classics 751}\03 - Alix Combelle Et Son Orchestre - Quatre Tickets.wav

     Pre-gap length  0:00:01.69

     Peak level 90.6 %
     Extraction speed 2.6 X
     Track quality 100.0 %
     Test CRC 21306676
     Copy CRC 21306676
     Track not present in AccurateRip database
     Copy OK

Track  4

     Filename E:\Alix Combelle - 1940-1941 (1994) [FLAC] {Chronological Classics 751}\04 - Trio De Saxophones D'Alix Combelle - Cascades.wav

     Pre-gap length  0:00:01.56

     Peak level 89.9 %
     Extraction speed 2.7 X
     Track quality 100.0 %
     Test CRC C198EB83
     Copy CRC C198EB83
     Track not present in AccurateRip database
     Copy OK

Track  5

     Filename E:\Alix Combelle - 1940-1941 (1994) [FLAC] {Chronological Classics 751}\05 - Trio De Saxophones D'Alix Combelle - Reflets.wav

     Pre-gap length  0:00:01.53

     Peak level 86.8 %
     Extraction speed 2.8 X
     Track quality 100.0 %
     Test CRC AD106BB0
     Copy CRC AD106BB0
     Track not present in AccurateRip database
     Copy OK

Track  6

     Filename E:\Alix Combelle - 1940-1941 (1994) [FLAC] {Chronological Classics 751}\06 - Trio De Saxophones D'Alix Combelle - Onze Heures Vingt.wav

     Pre-gap length  0:00:01.66

     Peak level 75.7 %
     Extraction speed 3.2 X
     Track quality 100.0 %
     Test CRC 4D28DC76
     Copy CRC 4D28DC76
     Track not present in AccurateRip database
     Copy OK

Track  7

     Filename E:\Alix Combelle - 1940-1941 (1994) [FLAC] {Chronological Classics 751}\07 - Trio De Saxophones D'Alix Combelle - On The Alamo.wav

     Pre-gap length  0:00:01.50

     Peak level 63.2 %
     Extraction speed 2.2 X
     Track quality 99.9 %
     Test CRC 53B67BB4
     Copy CRC 53B67BB4
     Track not present in AccurateRip database
     Copy OK

Track  8

     Filename E:\Alix Combelle - 1940-1941 (1994) [FLAC] {Chronological Classics 751}\08 - Alix Combelle Et Le Jazz De Paris - Grandfather?s Clock.wav

     Pre-gap length  0:00:01.66

     Peak level 76.5 %
     Extraction speed 1.6 X
     Track quality 100.0 %
     Test CRC F874F751
     Copy CRC F874F751
     Track not present in AccurateRip database
     Copy OK

Track  9

     Filename E:\Alix Combelle - 1940-1941 (1994) [FLAC] {Chronological Classics 751}\09 - Alix Combelle Et Le Jazz De Paris - South Rampart Street Parade.wav

     Pre-gap length  0:00:01.84

     Peak level 85.0 %
     Extraction speed 1.7 X
     Track quality 100.0 %
     Test CRC E8AFF446
     Copy CRC E8AFF446
     Track not present in AccurateRip database
     Copy OK

Track 10

     Filename E:\Alix Combelle - 1940-1941 (1994) [FLAC] {Chronological Classics 751}\10 - Alix Combelle Et Le Jazz De Paris - Mad.wav

     Pre-gap length  0:00:01.90

     Peak level 85.8 %
     Extraction speed 1.8 X
     Track quality 100.0 %
     Test CRC A96BDFA5
     Copy CRC A96BDFA5
     Track not present in AccurateRip database
     Copy OK

Track 11

     Filename E:\Alix Combelle - 1940-1941 (1994) [FLAC] {Chronological Classics 751}\11 - Alix Combelle Et Le Jazz De Paris - In A Mist.wav

     Pre-gap length  0:00:01.33

     Peak level 53.6 %
     Extraction speed 1.8 X
     Track quality 99.9 %
     Test CRC 7793A396
     Copy CRC 7793A396
     Track not present in AccurateRip database
     Copy OK

Track 12

     Filename E:\Alix Combelle - 1940-1941 (1994) [FLAC] {Chronological Classics 751}\12 - Alix Combelle Et Le Jazz De Paris - 12 O?clock In Jalopil.wav

     Pre-gap length  0:00:01.73

     Peak level 85.6 %
     Extraction speed 1.9 X
     Track quality 100.0 %
     Test CRC C1E792A5
     Copy CRC C1E792A5
     Track not present in AccurateRip database
     Copy OK

Track 13

     Filename E:\Alix Combelle - 1940-1941 (1994) [FLAC] {Chronological Classics 751}\13 - Alix Combelle Et Le Jazz De Paris - Sent For You Yesterday.wav

     Pre-gap length  0:00:01.40

     Peak level 80.5 %
     Extraction speed 2.0 X
     Track quality 100.0 %
     Test CRC 034E9233
     Copy CRC 034E9233
     Track not present in AccurateRip database
     Copy OK

Track 14

     Filename E:\Alix Combelle - 1940-1941 (1994) [FLAC] {Chronological Classics 751}\14 - Alix Combelle Et Le Jazz De Paris - In The Mood.wav

     Pre-gap length  0:00:01.46

     Peak level 99.9 %
     Extraction speed 1.8 X
     Track quality 99.9 %
     Test CRC 0BBEDABD
     Copy CRC 0BBEDABD
     Track not present in AccurateRip database
     Copy OK

Track 15

     Filename E:\Alix Combelle - 1940-1941 (1994) [FLAC] {Chronological Classics 751}\15 - Alix Combelle Et Le Jazz De Paris - For Dancers Only.wav

     Pre-gap length  0:00:01.66

     Peak level 81.2 %
     Extraction speed 2.1 X
     Track quality 100.0 %
     Test CRC 70092139
     Copy CRC 70092139
     Track not present in AccurateRip database
     Copy OK

Track 16

     Filename E:\Alix Combelle - 1940-1941 (1994) [FLAC] {Chronological Classics 751}\16 - Alix Combelle Et Le Jazz De Paris - Divertissement Dans Une Fonderie.wav

     Pre-gap length  0:00:01.16

     Peak level 88.1 %
     Extraction speed 1.8 X
     Track quality 99.9 %
     Test CRC EEB6DAE3
     Copy CRC EEB6DAE3
     Track not present in AccurateRip database
     Copy OK

Track 17

     Filename E:\Alix Combelle - 1940-1941 (1994) [FLAC] {Chronological Classics 751}\17 - Alix Combelle Et Le Jazz De Paris - Strictly For The Persians.wav

     Pre-gap length  0:00:01.42

     Peak level 99.6 %
     Extraction speed 2.2 X
     Track quality 100.0 %
     Test CRC 132E7F96
     Copy CRC 132E7F96
     Track not present in AccurateRip database
     Copy OK

Track 18

     Filename E:\Alix Combelle - 1940-1941 (1994) [FLAC] {Chronological Classics 751}\18 - Alix Combelle Et Le Jazz De Paris - Verlaine.wav

     Pre-gap length  0:00:01.20

     Peak level 72.5 %
     Extraction speed 2.3 X
     Track quality 100.0 %
     Test CRC 3101D11B
     Copy CRC 3101D11B
     Track not present in AccurateRip database
     Copy OK

Track 19

     Filename E:\Alix Combelle - 1940-1941 (1994) [FLAC] {Chronological Classics 751}\19 - Alix Combelle Et Le Jazz De Paris - Hollywood Pasttime.wav

     Pre-gap length  0:00:01.89

     Peak level 90.9 %
     Extraction speed 1.9 X
     Track quality 99.9 %
     Test CRC F95A32B7
     Copy CRC F95A32B7
     Track not present in AccurateRip database
     Copy OK

Track 20

     Filename E:\Alix Combelle - 1940-1941 (1994) [FLAC] {Chronological Classics 751}\20 - Alix Combelle Et Le Jazz De Paris - Mr. Mysterioso.wav

     Pre-gap length  0:00:01.53

     Peak level 99.7 %
     Extraction speed 2.4 X
     Track quality 100.0 %
     Test CRC CAC51061
     Copy CRC CAC51061
     Track not present in AccurateRip database
     Copy OK

None of the tracks are present in the AccurateRip database

No errors occurred

End of status report

==== Log checksum FBE3064698CEEAADD27FE935D7DDEC396C9B8DD5621FDB1E34A446925FE9D52B ====
14:51
124
Нет комментариев. Ваш будет первым!