Поиск

1993 Claude Hopkins And His Orchestra - 1932-1934 {The Chronological Classics 699} [CD]

1993 Claude Hopkins And His Orchestra - 1932-1934 {The Chronological Classics 699} [CD]
Стили:
Дата записи диска:
2 мая 1932 - 11 января 1934
Издатель (лейбл):
Номер по каталогу:
CC699
Носитель:
CD
Тип рипа:
tracks+.cue
Аудиокодек:
FLAC (*.flac)
Битрейт аудио:
lossless
Наличие сканов:
да

01. (I Would Do) Anything For You (3:17)
02. Mad Moments (2:54)
03. Mush Mouth (3:08)
04. How'm I Doin'? (3:14)
05. Three Little Words (3:12)
06. (I Would Do) Anything For You (3:02)
07. Hopkins Scream (2:38)
08. Washington Squabble (3:18)
09. Look Who's Here (3:10)
10. He's A Son Of The South (3:16)
11. Canadian Capers (2:54)
12. California, Here I Come (3:12)
13. Three Little Words (3:12)
14. Shake Your Ashes (2:48)
15. Mystic Moan (3:20)
16. Just You, Just Me (2:51)
17. Washington Squabble (3:06)
18. Ain't Misbehavin' (3:01)
19. Honeysuckle Rose (3:06)
20. Washington Squabble (3:09)
21. Mystic Moan (2:49)
22. Marie (3:03)
23. Ain't Misbehavin' (3:11)

Состав:
  • Claude Hopkins     Arranger, Composer, Director, Piano
  • Jimmy Mundy     Arranger, Composer
  • Fred Norman     Arranger, Trombone, Vocals
  • Walter Jones     Banjo, Guitar
  • Edmond Hall     Baritone, Clarinet, Sax (Alto), Sax (Baritone)
  • Henry Turner     Bowed Bass, Double Bass, String Bass
  • Pete Jacobs     Drums
  • Anatol Schenker     Liner Notes
  • Gene Johnson     Sax (Alto)
  • Bobby Sands     Sax (Tenor)
  • Henry Wells     Trombone
  • Ovie Alston     Trumpet, Vocals
  • Sylvester Lewis     Trumpet
  • Albert Snaer     Trumpet
  • Orlando Roberson     Vocals
Лог создания рипа
Exact Audio Copy V1.0 beta 3 from 29. August 2011
EAC extraction logfile from 11. December 2011, 4:28
Claude Hopkins And His Orchestra / 1932-1934
Used drive  : HL-DT-STDVDRAM GT20N   Adapter: 2  ID: 0
Read mode               : Secure
Utilize accurate stream : Yes
Defeat audio cache      : Yes
Make use of C2 pointers : No
Read offset correction                      : 667
Overread into Lead-In and Lead-Out          : No
Fill up missing offset samples with silence : Yes
Delete leading and trailing silent blocks   : No
Null samples used in CRC calculations       : Yes
Used interface                              : Native Win32 interface for Win NT & 2000
Gap handling                                : Appended to previous track
Used output format              : User Defined Encoder
Selected bitrate                : 1024 kBit/s
Quality                         : High
Add ID3 tag                     : No
Command line compressor         : C:\Program Files (x86)\Exact Audio Copy\Flac\flac.exe
Additional command line options : -8 -V -T "ARTIST=%artist%" -T "TITLE=%title%" -T "ALBUM=%albumtitle%" -T "DATE=%year%" -T "TRACKNUMBER=%tracknr%" -T "GENRE=%genre%" -T "PERFORMER=%albuminterpret%" -T "COMPOSER=%composer%" %haslyrics%--tag-from-file=LYRICS="%lyricsfile%"%haslyrics% -T "ALBUMARTIST=%albumartist%" -T "DISCNUMBER=%cdnumber%" -T "TOTALDISCS=%totalcds%" -T "TOTALTRACKS=%numtracks%" -T "COMMENT=%comment%" %source% -o %dest%
TOC of the extracted CD
     Track |   Start  |  Length  | Start sector | End sector
    ---------------------------------------------------------
        1  |  0:00.32 |  3:16.45 |        32    |    14776
        2  |  3:17.02 |  2:54.18 |     14777    |    27844
        3  |  6:11.20 |  3:08.12 |     27845    |    41956
        4  |  9:19.32 |  3:14.15 |     41957    |    56521
        5  | 12:33.47 |  3:12.30 |     56522    |    70951
        6  | 15:46.02 |  3:01.53 |     70952    |    84579
        7  | 18:47.55 |  2:37.70 |     84580    |    96424
        8  | 21:25.50 |  3:18.22 |     96425    |   111296
        9  | 24:43.72 |  3:10.10 |    111297    |   125556
       10  | 27:54.07 |  3:15.45 |    125557    |   140226
       11  | 31:09.52 |  2:53.68 |    140227    |   153269
       12  | 34:03.45 |  3:11.72 |    153270    |   167666
       13  | 37:15.42 |  3:12.25 |    167667    |   182091
       14  | 40:27.67 |  2:48.13 |    182092    |   194704
       15  | 43:16.05 |  3:19.42 |    194705    |   209671
       16  | 46:35.47 |  2:50.53 |    209672    |   222474
       17  | 49:26.25 |  3:06.05 |    222475    |   236429
       18  | 52:32.30 |  3:00.40 |    236430    |   249969
       19  | 55:32.70 |  3:06.12 |    249970    |   263931
       20  | 58:39.07 |  3:08.60 |    263932    |   278091
       21  | 61:47.67 |  2:49.05 |    278092    |   290771
       22  | 64:36.72 |  3:02.60 |    290772    |   304481
       23  | 67:39.57 |  3:11.00 |    304482    |   318806
Track  1
     Filename E:\ClaudeHopkins1932-1934_699\01 - (I Would Do) Anything For You.wav
     Pre-gap length  0:00:02.42
     Peak level 78.4 %
     Extraction speed 2.4 X
     Track quality 100.0 %
     Test CRC 4025791C
     Copy CRC 4025791C
     Accurately ripped (confidence 1)  [3EF8F521]  (AR v2)
     Copy OK
Track  2
     Filename E:\ClaudeHopkins1932-1934_699\02 - Mad Moments.wav
     Pre-gap length  0:00:01.00
     Peak level 91.8 %
     Extraction speed 2.4 X
     Track quality 100.0 %
     Test CRC BE8CAED2
     Copy CRC BE8CAED2
     Accurately ripped (confidence 1)  [C31503C9]  (AR v2)
     Copy OK
Track  3
     Filename E:\ClaudeHopkins1932-1934_699\03 - Mush Mouth.wav
     Pre-gap length  0:00:01.37
     Peak level 90.3 %
     Extraction speed 2.6 X
     Track quality 100.0 %
     Test CRC 3892BB16
     Copy CRC 3892BB16
     Accurately ripped (confidence 1)  [469000FA]  (AR v2)
     Copy OK
Track  4
     Filename E:\ClaudeHopkins1932-1934_699\04 - How'm I Doin'.wav
     Pre-gap length  0:00:01.26
     Peak level 89.9 %
     Extraction speed 1.9 X
     Track quality 99.9 %
     Test CRC C5D3101E
     Copy CRC C5D3101E
     Accurately ripped (confidence 1)  [B46400F8]  (AR v2)
     Copy OK
Track  5
     Filename E:\ClaudeHopkins1932-1934_699\05 - Three Little Words.wav
     Pre-gap length  0:00:01.42
     Peak level 85.1 %
     Extraction speed 1.5 X
     Track quality 100.0 %
     Test CRC 251E1B41
     Copy CRC 251E1B41
     Accurately ripped (confidence 1)  [F9112C85]  (AR v2)
     Copy OK
Track  6
     Filename E:\ClaudeHopkins1932-1934_699\06 - (I Would Do) Anything For You.wav
     Pre-gap length  0:00:01.20
     Peak level 88.4 %
     Extraction speed 1.6 X
     Track quality 100.0 %
     Test CRC C90DF4C9
     Copy CRC C90DF4C9
     Accurately ripped (confidence 1)  [29CD8F3B]  (AR v2)
     Copy OK
Track  7
     Filename E:\ClaudeHopkins1932-1934_699\07 - Hopkins Scream.wav
     Pre-gap length  0:00:01.17
     Peak level 76.0 %
     Extraction speed 1.6 X
     Track quality 100.0 %
     Test CRC 3ADCF1F8
     Copy CRC 3ADCF1F8
     Accurately ripped (confidence 1)  [F2444378]  (AR v2)
     Copy OK
Track  8
     Filename E:\ClaudeHopkins1932-1934_699\08 - Washington Squabble.wav
     Pre-gap length  0:00:01.50
     Peak level 79.0 %
     Extraction speed 1.8 X
     Track quality 100.0 %
     Test CRC 4B637E18
     Copy CRC 4B637E18
     Accurately ripped (confidence 1)  [7883F6EE]  (AR v2)
     Copy OK
Track  9
     Filename E:\ClaudeHopkins1932-1934_699\09 - Look Who's Here.wav
     Pre-gap length  0:00:01.22
     Peak level 80.3 %
     Extraction speed 1.8 X
     Track quality 100.0 %
     Test CRC CB3986BD
     Copy CRC CB3986BD
     Accurately ripped (confidence 1)  [77B28FDF]  (AR v2)
     Copy OK
Track 10
     Filename E:\ClaudeHopkins1932-1934_699\10 - He's A Son Of The South.wav
     Pre-gap length  0:00:01.73
     Peak level 78.6 %
     Extraction speed 1.9 X
     Track quality 100.0 %
     Test CRC A5550EB7
     Copy CRC A5550EB7
     Accurately ripped (confidence 1)  [34056946]  (AR v2)
     Copy OK
Track 11
     Filename E:\ClaudeHopkins1932-1934_699\11 - Canadian Capers.wav
     Pre-gap length  0:00:01.49
     Peak level 78.2 %
     Extraction speed 1.8 X
     Track quality 100.0 %
     Test CRC 110A5F80
     Copy CRC 110A5F80
     Accurately ripped (confidence 1)  [1FA90EA4]  (AR v2)
     Copy OK
Track 12
     Filename E:\ClaudeHopkins1932-1934_699\12 - California, Here I Come.wav
     Pre-gap length  0:00:01.06
     Peak level 83.9 %
     Extraction speed 2.0 X
     Track quality 100.0 %
     Test CRC 757EF8B1
     Copy CRC 757EF8B1
     Accurately ripped (confidence 1)  [904F3953]  (AR v2)
     Copy OK
Track 13
     Filename E:\ClaudeHopkins1932-1934_699\13 - Three Little Words.wav
     Pre-gap length  0:00:01.06
     Peak level 81.3 %
     Extraction speed 2.1 X
     Track quality 100.0 %
     Test CRC 5EF584D8
     Copy CRC 5EF584D8
     Accurately ripped (confidence 1)  [02502A35]  (AR v2)
     Copy OK
Track 14
     Filename E:\ClaudeHopkins1932-1934_699\14 - Shake Your Ashes.wav
     Pre-gap length  0:00:01.40
     Peak level 67.2 %
     Extraction speed 2.0 X
     Track quality 100.0 %
     Test CRC C0AE5673
     Copy CRC C0AE5673
     Accurately ripped (confidence 1)  [78C8A4AA]  (AR v2)
     Copy OK
Track 15
     Filename E:\ClaudeHopkins1932-1934_699\15 - Mystic Moan.wav
     Pre-gap length  0:00:01.40
     Peak level 85.8 %
     Extraction speed 1.9 X
     Track quality 99.9 %
     Test CRC 14ADE0A3
     Copy CRC 14ADE0A3
     Accurately ripped (confidence 1)  [77B41DA7]  (AR v2)
     Copy OK
Track 16
     Filename E:\ClaudeHopkins1932-1934_699\16 - Just You, Just Me.wav
     Peak level 78.6 %
     Extraction speed 2.2 X
     Track quality 100.0 %
     Test CRC 13F52624
     Copy CRC 13F52624
     Accurately ripped (confidence 1)  [857F100B]  (AR v2)
     Copy OK
Track 17
     Filename E:\ClaudeHopkins1932-1934_699\17 - Washington Squabble.wav
     Pre-gap length  0:00:01.60
     Peak level 93.6 %
     Extraction speed 2.3 X
     Track quality 100.0 %
     Test CRC 0A1BB24A
     Copy CRC 0A1BB24A
     Accurately ripped (confidence 1)  [62349EAF]  (AR v2)
     Copy OK
Track 18
     Filename E:\ClaudeHopkins1932-1934_699\18 - Ain't Misbehavin'.wav
     Pre-gap length  0:00:01.44
     Peak level 79.2 %
     Extraction speed 2.2 X
     Track quality 100.0 %
     Test CRC A585614F
     Copy CRC A585614F
     Accurately ripped (confidence 1)  [D17B34B3]  (AR v2)
     Copy OK
Track 19
     Filename E:\ClaudeHopkins1932-1934_699\19 - Honeysuckle Rose.wav
     Pre-gap length  0:00:01.33
     Peak level 85.8 %
     Extraction speed 2.3 X
     Track quality 100.0 %
     Test CRC EEC5295D
     Copy CRC EEC5295D
     Accurately ripped (confidence 1)  [E5889B05]  (AR v2)
     Copy OK
Track 20
     Filename E:\ClaudeHopkins1932-1934_699\20 - Washington Squabble.wav
     Pre-gap length  0:00:01.56
     Peak level 77.7 %
     Extraction speed 2.4 X
     Track quality 100.0 %
     Test CRC A1A29E54
     Copy CRC A1A29E54
     Accurately ripped (confidence 1)  [4B5F01ED]  (AR v2)
     Copy OK
Track 21
     Filename E:\ClaudeHopkins1932-1934_699\21 - Mystic Moan.wav
     Pre-gap length  0:00:01.16
     Peak level 77.8 %
     Extraction speed 2.4 X
     Track quality 100.0 %
     Test CRC F9605D5D
     Copy CRC F9605D5D
     Accurately ripped (confidence 1)  [8D99DC07]  (AR v2)
     Copy OK
Track 22
     Filename E:\ClaudeHopkins1932-1934_699\22 - Marie.wav
     Pre-gap length  0:00:01.36
     Peak level 76.2 %
     Extraction speed 2.5 X
     Track quality 100.0 %
     Test CRC EFE56CA8
     Copy CRC EFE56CA8
     Accurately ripped (confidence 1)  [A5459E5C]  (AR v2)
     Copy OK
Track 23
     Filename E:\ClaudeHopkins1932-1934_699\23 - Ain't Misbehavin'.wav
     Pre-gap length  0:00:01.62
     Peak level 76.4 %
     Extraction speed 2.6 X
     Track quality 100.0 %
     Test CRC 2589E43F
     Copy CRC 2589E43F
     Accurately ripped (confidence 1)  [6558D986]  (AR v2)
     Copy OK
All tracks accurately ripped
No errors occurred
End of status report
==== Log checksum A083D253B654DFF87C2399BA784E5A9706A03A9FF28F50050FA2E16AC649212D ====
Приватный:
Нет (DHT включён)
Размер:
286.04 Мб (299,939,864 байт) » файлов: 34
Участники:
1 раздают, 1 качают (2 участников всего)
Внешние участники:
--- [ Обновить ]
20:15
485
Нет комментариев. Ваш будет первым!