Поиск

1993 Benny Goodman & His Orchestra - 1928-1931 {The Chronological Classics 693} [CD]

1993 Benny Goodman & His Orchestra - 1928-1931 {The Chronological Classics 693} [CD]
Стили:
Дата записи диска:
23 января 1928 - 5 февраля 1931
Дата издания диска:
19 ноября 1996
Издатель (лейбл):
Номер по каталогу:
СС693
Носитель:
CD
Тип рипа:
tracks+.cue
Аудиокодек:
FLAC (*.flac)
Битрейт аудио:
lossless
Треклист:

01. A Jazz Holiday (2:45)
02. Wolverine Blues (2:55)
03. Jungle Blues (3:16)
04. Room 1411 (Goin' To Town) (2:41)
05. Blue (2:55)
06. Shirt Tail Stomp (3:04)
07. That's A Plenty (2:51)
08. Clarinetitis (2:29)
09. After A While (3:00)
10. Muskrat Scramble (2:13)
11. He's Not Worth Your Tears (3:13)
12. Linda (2:33)
13. And Then Your Lips Met Mine (2:43)
14. Overnight (2:38)
15. If You Haven't Got A Girl (3:17)
16. I'm Happy When You're Happy (2:47)
17. You Didn't Have To Tell Me (2:48)
18. Falling In Love Again (3:10)
19. We Can Live On Love (2:59)
20. When Your Lover Has Gone (2:49)
21. 99 Out Of A Hundred Wanna Be Loved (2:34)
22. Mine Yesterday, His Today (2:53)

Состав:
  • Benny Goodman     Bandleader, Baritone, Clarinet, Composer, Cornet, Sax (Alto)
  • Eddie Lang     Banjo, Guitar
  • Herman Foster     Banjo
  • Harry Goodman     Bowed Bass, Sax (Baritone)
  • Bob Conselman     Clarinet, Drums, Vibraphone
  • Sid Stoneburn     Clarinet, Sax (Alto)
  • Larry Binyon     Clarinet, Sax (Tenor)
  • Fud Livingston     Clarinet, Sax (Tenor)
  • Ben Pollack     Clarinet
  • Bud Freeman     Composer, Sax (Tenor)
  • Harold Arlen     Composer, Vocals
  • Jimmy McPartland     Cornet
  • Gene Krupa     Drums
  • Dick Morgan     Guitar
  • Anatol Schenker     Liner Notes
  • Vic Breidis     Piano
  • Arthur Schutt     Piano
  • Mel Stitzel     Piano
  • Joe Sullivan     Piano
  • Tommy Dorsey     Trombone
  • Glenn Miller     Trombone
  • Wingy Manone     Trumpet
  • Sammy Shapiro     Violin
  • Harold "Scrappy" Lambert     Vocals
Доп. инфо:

На этом диске переизданы первые 22 записи под руководством Бенни Гудмана, охватывающие трехлетний период, когда кларнетист превратился в очень востребованного студийного музыканта во время Депрессии. В первых десяти записях он играет в небольших группах с такими корнетистом Джимми МакПартлендом, тромбонистом Гленом Миллером, трубачом Винги Маноне и тенор-саксофонистом Бадом Фрименом. В альбом включены "Wolverine Blues", "Jungle Blues" (в которой Бенни Гудмен исполняет свое единственное соло на трубе), сатирическая "Shirt Tail Stomp" (высмеивающая "кукурузные" группы) и пара трио ("That's a Plenty" и "Clarinetitis"), записанных за семь лет до дебюта трио Бенни Гудмена. Остальная дюжина номеров, записанных в 1930-1931 годах, представляет собой выступления строго танцевальных групп с акцентом на мелодии и скучным вокалом (в основном, Скраппи Ламберта и Пола Смолла) и лишь несколькими короткими местами для соло.

Лог создания рипа
EAC extraction logfile from 15. April 2009, 17:06 for CD
Benny Goodman / 1928-1931
Used drive  : Optiarc DVD RW AD-7590A   Adapter: 3  ID: 0
Read mode   : Secure with NO C2, accurate stream, disable cache
Read offset correction : 48
Overread into Lead-In and Lead-Out : No
Used output format : C:\Program Files\Exact Audio Copy\Flac\flac.exe   (User Defined Encoder)
                     192 kBit/s
                     Additional command line options : -8 -A tukey(0.25) -A gauss(0.1875) -b 4096 -V -T "artist=%a" -T "title=%t" -T "album=%g" -T "date=%y" -T "tracknumber=%n" -T "genre=%m" %s --sector-align
Other options      :
    Fill up missing offset samples with silence : Yes
    Delete leading and trailing silent blocks : No
    Native Win32 interface for Win NT & 2000
Track  1
     Filename D:\flac\Benny Goodman - 1928-1931\01 - A Jazz Holiday.wav
     Pre-gap length  0:00:02.33
     Peak level 100.0 %
     Track quality 100.0 %
     Test CRC E006EF13
     Copy CRC E006EF13
     Copy OK
Track  2
     Filename D:\flac\Benny Goodman - 1928-1931\02 - Wolverine Blues.wav
     Peak level 100.0 %
     Track quality 100.0 %
     Test CRC 02CD4CB4
     Copy CRC 02CD4CB4
     Copy OK
Track  3
     Filename D:\flac\Benny Goodman - 1928-1931\03 - Jungle Blues.wav
     Peak level 97.9 %
     Track quality 100.0 %
     Test CRC E8FEA946
     Copy CRC E8FEA946
     Copy OK
Track  4
     Filename D:\flac\Benny Goodman - 1928-1931\04 - Room 1411 (Goin' to Town).wav
     Pre-gap length  0:00:01.18
     Peak level 84.8 %
     Track quality 100.0 %
     Test CRC 1185DC5B
     Copy CRC 1185DC5B
     Copy OK
Track  5
     Filename D:\flac\Benny Goodman - 1928-1931\05 - Blue.wav
     Peak level 78.8 %
     Track quality 100.0 %
     Test CRC E9D2A4F0
     Copy CRC E9D2A4F0
     Copy OK
Track  6
     Filename D:\flac\Benny Goodman - 1928-1931\06 - Shirt Tail Stomp.wav
     Pre-gap length  0:00:00.64
     Peak level 71.4 %
     Track quality 100.0 %
     Test CRC 9AB31A58
     Copy CRC 9AB31A58
     Copy OK
Track  7
     Filename D:\flac\Benny Goodman - 1928-1931\07 - That's a Plenty.wav
     Pre-gap length  0:00:00.64
     Peak level 99.9 %
     Track quality 100.0 %
     Test CRC B3EE9733
     Copy CRC B3EE9733
     Copy OK
Track  8
     Filename D:\flac\Benny Goodman - 1928-1931\08 - Clarinetitis.wav
     Pre-gap length  0:00:01.00
     Peak level 93.2 %
     Track quality 100.0 %
     Test CRC 5E27745A
     Copy CRC 5E27745A
     Copy OK
Track  9
     Filename D:\flac\Benny Goodman - 1928-1931\09 - After a While.wav
     Peak level 84.4 %
     Track quality 100.0 %
     Test CRC 24BFFA12
     Copy CRC 24BFFA12
     Copy OK
Track 10
     Filename D:\flac\Benny Goodman - 1928-1931\10 - Muskrat Scramble.wav
     Pre-gap length  0:00:00.61
     Peak level 81.8 %
     Track quality 100.0 %
     Test CRC 8446F8F8
     Copy CRC 8446F8F8
     Copy OK
Track 11
     Filename D:\flac\Benny Goodman - 1928-1931\11 - He's Not Worth Your Tears.wav
     Peak level 69.7 %
     Track quality 100.0 %
     Test CRC 152A7AA8
     Copy CRC 152A7AA8
     Copy OK
Track 12
     Filename D:\flac\Benny Goodman - 1928-1931\12 - Linda.wav
     Peak level 67.9 %
     Track quality 100.0 %
     Test CRC F861F05D
     Copy CRC F861F05D
     Copy OK
Track 13
     Filename D:\flac\Benny Goodman - 1928-1931\13 - And Then Your Lips Met Mine.wav
     Peak level 83.9 %
     Track quality 100.0 %
     Test CRC 60026EFB
     Copy CRC 60026EFB
     Copy OK
Track 14
     Filename D:\flac\Benny Goodman - 1928-1931\14 - Overnight.wav
     Peak level 88.6 %
     Track quality 100.0 %
     Test CRC 5D961DAA
     Copy CRC 5D961DAA
     Copy OK
Track 15
     Filename D:\flac\Benny Goodman - 1928-1931\15 - If You Haven't Got a Girl.wav
     Peak level 92.7 %
     Track quality 100.0 %
     Test CRC B5043DCA
     Copy CRC B5043DCA
     Copy OK
Track 16
     Filename D:\flac\Benny Goodman - 1928-1931\16 - I'm Happy When You're Happy.wav
     Pre-gap length  0:00:00.64
     Peak level 85.5 %
     Track quality 100.0 %
     Test CRC 21BCB6EB
     Copy CRC 21BCB6EB
     Copy OK
Track 17
     Filename D:\flac\Benny Goodman - 1928-1931\17 - You Didn't Have to Tell Me.wav
     Pre-gap length  0:00:01.29
     Peak level 88.9 %
     Track quality 100.0 %
     Test CRC 3F4C98C0
     Copy CRC 3F4C98C0
     Copy OK
Track 18
     Filename D:\flac\Benny Goodman - 1928-1931\18 - Falling in Love Again.wav
     Pre-gap length  0:00:00.64
     Peak level 85.0 %
     Track quality 100.0 %
     Test CRC 175872CF
     Copy CRC 175872CF
     Copy OK
Track 19
     Filename D:\flac\Benny Goodman - 1928-1931\19 - We Can Live on Love.wav
     Pre-gap length  0:00:00.67
     Peak level 71.3 %
     Track quality 100.0 %
     Test CRC 8FCADA4C
     Copy CRC 8FCADA4C
     Copy OK
Track 20
     Filename D:\flac\Benny Goodman - 1928-1931\20 - When Your Lover Has Gone.wav
     Pre-gap length  0:00:01.18
     Peak level 97.0 %
     Track quality 100.0 %
     Test CRC FF34C393
     Copy CRC FF34C393
     Copy OK
Track 21
     Filename D:\flac\Benny Goodman - 1928-1931\21 - 99 out of a Hundred Wanna Be Loved.wav
     Pre-gap length  0:00:01.27
     Peak level 94.8 %
     Track quality 100.0 %
     Test CRC BB0B2DBD
     Copy CRC BB0B2DBD
     Copy OK
Track 22
     Filename D:\flac\Benny Goodman - 1928-1931\22 - Mine Yesterday, His Today.wav
     Pre-gap length  0:00:01.28
     Peak level 82.1 %
     Track quality 99.9 %
     Test CRC 90F1E878
     Copy CRC 90F1E878
     Copy OK
No errors occured
End of status report
Download available for power users only.
To become a power user - read FAQ.
13:18
322
Нет комментариев. Ваш будет первым!