Поиск

1993 Andy Kirk And His Clouds Of Joy - 1940-1942 {The Chronological Classics 681} [CD]

1993 Andy Kirk And His Clouds Of Joy - 1940-1942 {The Chronological Classics 681} [CD]
Стили:
Дата записи диска:
8 июля 1940 - июль 1942
Издатель (лейбл):
Номер по каталогу:
CC681
Носитель:
CD
Тип рипа:
tracks+.cue
Аудиокодек:
FLAC (*.flac)
Битрейт аудио:
lossless
Время звучания:
01:07:46
Наличие сканов:
да
Треклист:

01. Midnight Stroll (3:21)
02. Little Miss' (3:15)
03. The Count (3:11)
04. Twelfth Street Rag (2:57)
05. (Ev'rything Happened) When I Saw You (3:08)
06. If I Feel This Way Tomorrow (Then It's Love) (3:02)
07. Or Have I (2:54)
08. Cuban Boogie Woogie (2:23)
09. A Dream Dropped In (3:09)
10. Is It A Sin (My Loving You?) (3:07)
11. Ring Dem Bells (2:51)
12. Big Time Crip (3:01)
13. 47th Street Jive (3:17)
14. I'm Misunderstood (3:23)
15. No Answer (2:49)
16. Hey Lawdy Mama (Meet Me In The Bottom) (2:58)
17. Boogie Woogie Cocktail (2:48)
18. Ride On, Ride On (2:37)
19. McGhee Special (2:55)
20. Worried Life Blues (Someday, Baby) (2:29)
21. Take It And Git (3:16)
22. Hip Hip Hooray (3:00)
23. Unlucky Blues (2:50)

Состав:
  • Ken Kersey     Arranger, Composer, Piano
  • Mary Lou Williams     Arranger, Composer, Piano
  • Howard McGhee     Arranger, Composer, Trumpet
  • John Harrington     Baritone, Clarinet, Sax (Alto), Sax (Baritone)
  • Earl Miller     Clarinet, Sax (Alto)
  • Rudy Powell     Clarinet, Sax (Alto)
  • Edward Inge     Clarinet, Sax (Tenor)
  • Dick Wilson     Clarinet, Sax (Tenor)
  • Andy Kirk     Director, Sax (Baritone), Sax (Bass), Tuba
  • Ben Thigpen     Drums
  • Floyd Smith     Guitar, Guitar (Electric), Vocals
  • Anatol Schenker     Liner Notes
  • Ben Smith     Sax (Alto)
  • Al Sears     Sax (Tenor)
  • Booker Collins     Standup Bass, String Bass
  • Henry Wells     Trombone, Vocals
  • Ted Donnelly     Trombone
  • Milt Robinson     Trombone
  • Harold Baker     Trumpet
  • John Burris     Trumpet
  • Harry Lawson     Trumpet
  • Clarence Trice     Trumpet
  • June Richmond     Vocals
Доп. инфо:

Оркестр Энди Кирка переживал серьезные изменения в период, охватываемый этим диском. Преждевременно умер звезда тенора Дик Уилсон; ушла эстрадная певица Фа Террелл; пианистка и главный аранжировщик Мэри Лу Уильямс ушла в начале 1942 года (ее заменил на фортепиано Кен Керси); а такие интересные молодые игроки, как трубачи Гарольд "Шорти" Бейкер и Говард МакГи и Эл Сирс на теноре, придали группе несколько иное звучание. Вообще, музыка на этом диске (свинг позднего периода) неизменно находится на более высоком уровне, чем на большинстве предыдущих дисков серии Classics. Основные моменты включают "The Count", "Hey Lawdy Mama", "Boogie Woogie Cocktail" (с участием Керси) и дебют Говарда МакГи в записи захватывающего "McGhee Special".

Лог создания рипа
Exact Audio Copy V1.0 beta 2 from 29. April 2011
EAC extraction logfile from 11. September 2011, 16:47
Andy Kirk And His Clouds Of Joy / 1940-1942
Used drive  : Optiarc DVD RW AD-7170A   Adapter: 1  ID: 0
Read mode               : Secure
Utilize accurate stream : Yes
Defeat audio cache      : Yes
Make use of C2 pointers : No
Read offset correction                      : 48
Overread into Lead-In and Lead-Out          : No
Fill up missing offset samples with silence : Yes
Delete leading and trailing silent blocks   : No
Null samples used in CRC calculations       : Yes
Used interface                              : Native Win32 interface for Win NT & 2000
Gap handling                                : Appended to previous track
Used output format              : User Defined Encoder
Selected bitrate                : 1024 kBit/s
Quality                         : High
Add ID3 tag                     : No
Command line compressor         : C:\Program Files (x86)\Exact Audio Copy\Flac\flac.exe
Additional command line options : -8 -V -T "ARTIST=%artist%" -T "TITLE=%title%" -T "ALBUM=%albumtitle%" -T "DATE=%year%" -T "TRACKNUMBER=%tracknr%" -T "GENRE=%genre%" -T "PERFORMER=%albuminterpret%" -T "COMPOSER=%composer%" %haslyrics%--tag-from-file=LYRICS
TOC of the extracted CD
     Track |   Start  |  Length  | Start sector | End sector
    ---------------------------------------------------------
        1  |  0:00.32 |  3:21.18 |        32    |    15124
        2  |  3:21.50 |  3:14.45 |     15125    |    29719
        3  |  6:36.20 |  3:11.27 |     29720    |    44071
        4  |  9:47.47 |  2:57.23 |     44072    |    57369
        5  | 12:44.70 |  3:08.05 |     57370    |    71474
        6  | 15:53.00 |  3:02.05 |     71475    |    85129
        7  | 18:55.05 |  2:53.67 |     85130    |    98171
        8  | 21:48.72 |  2:22.68 |     98172    |   108889
        9  | 24:11.65 |  3:09.37 |    108890    |   123101
       10  | 27:21.27 |  3:07.23 |    123102    |   137149
       11  | 30:28.50 |  2:51.30 |    137150    |   150004
       12  | 33:20.05 |  3:01.12 |    150005    |   163591
       13  | 36:21.17 |  3:17.25 |    163592    |   178391
       14  | 39:38.42 |  3:22.43 |    178392    |   193584
       15  | 43:01.10 |  2:49.27 |    193585    |   206286
       16  | 45:50.37 |  2:58.08 |    206287    |   219644
       17  | 48:48.45 |  2:48.00 |    219645    |   232244
       18  | 51:36.45 |  2:36.65 |    232245    |   244009
       19  | 54:13.35 |  2:54.57 |    244010    |   257116
       20  | 57:08.17 |  2:29.18 |    257117    |   268309
       21  | 59:37.35 |  3:16.30 |    268310    |   283039
       22  | 62:53.65 |  2:59.50 |    283040    |   296514
       23  | 65:53.40 |  2:50.22 |    296515    |   309286
Track  1
     Filename E:\Vuze_BitTorrent_DLs\EAC Rips\Andy Kirk And His Twelve Clouds Of Joy - 1940-1942 (1993) [FLAC] {Chronological Classics 681}\01 - Midnight Stroll.wav
     Pre-gap length  0:00:02.42
     Peak level 77.4 %
     Extraction speed 4.5 X
     Track quality 100.0 %
     Test CRC 8563167E
     Copy CRC 8563167E
     Accurately ripped (confidence 4)  [285D45C1]  (AR v1)
     Copy OK
Track  2
     Filename E:\Vuze_BitTorrent_DLs\EAC Rips\Andy Kirk And His Twelve Clouds Of Joy - 1940-1942 (1993) [FLAC] {Chronological Classics 681}\02 - Little Miss'.wav
     Pre-gap length  0:00:01.73
     Peak level 77.0 %
     Extraction speed 4.8 X
     Track quality 100.0 %
     Test CRC 942E84E5
     Copy CRC 942E84E5
     Accurately ripped (confidence 4)  [F46A762E]  (AR v1)
     Copy OK
Track  3
     Filename E:\Vuze_BitTorrent_DLs\EAC Rips\Andy Kirk And His Twelve Clouds Of Joy - 1940-1942 (1993) [FLAC] {Chronological Classics 681}\03 - The Count.wav
     Pre-gap length  0:00:02.04
     Peak level 63.9 %
     Extraction speed 5.2 X
     Track quality 100.0 %
     Test CRC 2E825383
     Copy CRC 2E825383
     Accurately ripped (confidence 4)  [706E0040]  (AR v1)
     Copy OK
Track  4
     Filename E:\Vuze_BitTorrent_DLs\EAC Rips\Andy Kirk And His Twelve Clouds Of Joy - 1940-1942 (1993) [FLAC] {Chronological Classics 681}\04 - Twelfth Street Rag.wav
     Pre-gap length  0:00:02.13
     Peak level 76.4 %
     Extraction speed 4.2 X
     Track quality 99.9 %
     Test CRC ACE6F20D
     Copy CRC ACE6F20D
     Accurately ripped (confidence 4)  [CCD54C35]  (AR v1)
     Copy OK
Track  5
     Filename E:\Vuze_BitTorrent_DLs\EAC Rips\Andy Kirk And His Twelve Clouds Of Joy - 1940-1942 (1993) [FLAC] {Chronological Classics 681}\05 - (Ev'rything Happened) When I Saw You.wav
     Pre-gap length  0:00:01.06
     Peak level 70.9 %
     Extraction speed 5.7 X
     Track quality 100.0 %
     Test CRC 53635414
     Copy CRC 53635414
     Accurately ripped (confidence 4)  [96E0FAB4]  (AR v1)
     Copy OK
Track  6
     Filename E:\Vuze_BitTorrent_DLs\EAC Rips\Andy Kirk And His Twelve Clouds Of Joy - 1940-1942 (1993) [FLAC] {Chronological Classics 681}\06 - If I Feel This Way Tomorrow (Then It's Love).wav
     Pre-gap length  0:00:02.17
     Peak level 59.4 %
     Extraction speed 5.9 X
     Track quality 100.0 %
     Test CRC 30DC807D
     Copy CRC 30DC807D
     Accurately ripped (confidence 4)  [A2376E20]  (AR v1)
     Copy OK
Track  7
     Filename E:\Vuze_BitTorrent_DLs\EAC Rips\Andy Kirk And His Twelve Clouds Of Joy - 1940-1942 (1993) [FLAC] {Chronological Classics 681}\07 - Or Have I.wav
     Pre-gap length  0:00:02.37
     Peak level 71.3 %
     Extraction speed 6.0 X
     Track quality 100.0 %
     Test CRC C8F73B7B
     Copy CRC C8F73B7B
     Accurately ripped (confidence 4)  [4670AA2B]  (AR v1)
     Copy OK
Track  8
     Filename E:\Vuze_BitTorrent_DLs\EAC Rips\Andy Kirk And His Twelve Clouds Of Joy - 1940-1942 (1993) [FLAC] {Chronological Classics 681}\08 - Cuban Boogie Woogie.wav
     Pre-gap length  0:00:02.20
     Peak level 56.6 %
     Extraction speed 6.0 X
     Track quality 100.0 %
     Test CRC DB342088
     Copy CRC DB342088
     Accurately ripped (confidence 4)  [9B6FB85F]  (AR v1)
     Copy OK
Track  9
     Filename E:\Vuze_BitTorrent_DLs\EAC Rips\Andy Kirk And His Twelve Clouds Of Joy - 1940-1942 (1993) [FLAC] {Chronological Classics 681}\09 - A Dream Dropped In.wav
     Pre-gap length  0:00:01.24
     Peak level 70.6 %
     Extraction speed 6.5 X
     Track quality 100.0 %
     Test CRC 6BA46AFF
     Copy CRC 6BA46AFF
     Accurately ripped (confidence 4)  [F2702649]  (AR v1)
     Copy OK
Track 10
     Filename E:\Vuze_BitTorrent_DLs\EAC Rips\Andy Kirk And His Twelve Clouds Of Joy - 1940-1942 (1993) [FLAC] {Chronological Classics 681}\10 - Is It A Sin (My Loving You).wav
     Pre-gap length  0:00:02.42
     Peak level 59.1 %
     Extraction speed 6.7 X
     Track quality 100.0 %
     Test CRC 7BF0CCBA
     Copy CRC 7BF0CCBA
     Accurately ripped (confidence 4)  [BC5C6EF0]  (AR v1)
     Copy OK
Track 11
     Filename E:\Vuze_BitTorrent_DLs\EAC Rips\Andy Kirk And His Twelve Clouds Of Joy - 1940-1942 (1993) [FLAC] {Chronological Classics 681}\11 - Ring Dem Bells.wav
     Pre-gap length  0:00:01.53
     Peak level 64.2 %
     Extraction speed 6.9 X
     Track quality 100.0 %
     Test CRC 1D23B876
     Copy CRC 1D23B876
     Accurately ripped (confidence 4)  [472FE2B3]  (AR v1)
     Copy OK
Track 12
     Filename E:\Vuze_BitTorrent_DLs\EAC Rips\Andy Kirk And His Twelve Clouds Of Joy - 1940-1942 (1993) [FLAC] {Chronological Classics 681}\12 - Big Time Crip.wav
     Pre-gap length  0:00:02.13
     Peak level 63.3 %
     Extraction speed 7.0 X
     Track quality 100.0 %
     Test CRC 4F01BA8C
     Copy CRC 4F01BA8C
     Accurately ripped (confidence 4)  [63FDD983]  (AR v1)
     Copy OK
Track 13
     Filename E:\Vuze_BitTorrent_DLs\EAC Rips\Andy Kirk And His Twelve Clouds Of Joy - 1940-1942 (1993) [FLAC] {Chronological Classics 681}\13 - 47th Street Jive.wav
     Pre-gap length  0:00:02.46
     Peak level 65.6 %
     Extraction speed 7.4 X
     Track quality 100.0 %
     Test CRC E18E308E
     Copy CRC E18E308E
     Accurately ripped (confidence 4)  [5158563C]  (AR v1)
     Copy OK
Track 14
     Filename E:\Vuze_BitTorrent_DLs\EAC Rips\Andy Kirk And His Twelve Clouds Of Joy - 1940-1942 (1993) [FLAC] {Chronological Classics 681}\14 - I'm Misunderstood.wav
     Pre-gap length  0:00:03.33
     Peak level 57.6 %
     Extraction speed 7.7 X
     Track quality 100.0 %
     Test CRC 70F14949
     Copy CRC 70F14949
     Accurately ripped (confidence 4)  [8975D9E8]  (AR v1)
     Copy OK
Track 15
     Filename E:\Vuze_BitTorrent_DLs\EAC Rips\Andy Kirk And His Twelve Clouds Of Joy - 1940-1942 (1993) [FLAC] {Chronological Classics 681}\15 - No Answer.wav
     Pre-gap length  0:00:02.10
     Peak level 60.9 %
     Extraction speed 5.7 X
     Track quality 99.9 %
     Test CRC ECCF21EF
     Copy CRC ECCF21EF
     Accurately ripped (confidence 4)  [9C544A0A]  (AR v1)
     Copy OK
Track 16
     Filename E:\Vuze_BitTorrent_DLs\EAC Rips\Andy Kirk And His Twelve Clouds Of Joy - 1940-1942 (1993) [FLAC] {Chronological Classics 681}\16 - Hey Lawdy Mama (Meet Me In The Bottom).wav
     Pre-gap length  0:00:02.16
     Peak level 55.4 %
     Extraction speed 7.8 X
     Track quality 100.0 %
     Test CRC E09A48DE
     Copy CRC E09A48DE
     Accurately ripped (confidence 4)  [F7C3B440]  (AR v1)
     Copy OK
Track 17
     Filename E:\Vuze_BitTorrent_DLs\EAC Rips\Andy Kirk And His Twelve Clouds Of Joy - 1940-1942 (1993) [FLAC] {Chronological Classics 681}\17 - Boogie Woogie Cocktail.wav
     Pre-gap length  0:00:02.06
     Peak level 67.0 %
     Extraction speed 5.9 X
     Track quality 99.9 %
     Test CRC 4B1DB3E2
     Copy CRC 4B1DB3E2
     Accurately ripped (confidence 4)  [B087CAD6]  (AR v1)
     Copy OK
Track 18
     Filename E:\Vuze_BitTorrent_DLs\EAC Rips\Andy Kirk And His Twelve Clouds Of Joy - 1940-1942 (1993) [FLAC] {Chronological Classics 681}\18 - Ride On, Ride On.wav
     Pre-gap length  0:00:01.97
     Peak level 49.8 %
     Extraction speed 7.8 X
     Track quality 100.0 %
     Test CRC 025DFCAE
     Copy CRC 025DFCAE
     Accurately ripped (confidence 4)  [B357F752]  (AR v1)
     Copy OK
Track 19
     Filename E:\Vuze_BitTorrent_DLs\EAC Rips\Andy Kirk And His Twelve Clouds Of Joy - 1940-1942 (1993) [FLAC] {Chronological Classics 681}\19 - McGhee Special.wav
     Pre-gap length  0:00:02.04
     Peak level 51.5 %
     Extraction speed 6.2 X
     Track quality 99.9 %
     Test CRC A2286804
     Copy CRC A2286804
     Accurately ripped (confidence 4)  [D652DA7F]  (AR v1)
     Copy OK
Track 20
     Filename E:\Vuze_BitTorrent_DLs\EAC Rips\Andy Kirk And His Twelve Clouds Of Joy - 1940-1942 (1993) [FLAC] {Chronological Classics 681}\20 - Worried Life Blues (Someday, Baby).wav
     Pre-gap length  0:00:01.86
     Peak level 57.6 %
     Extraction speed 7.6 X
     Track quality 100.0 %
     Test CRC A626B3D9
     Copy CRC A626B3D9
     Accurately ripped (confidence 4)  [66F52C2D]  (AR v1)
     Copy OK
Track 21
     Filename E:\Vuze_BitTorrent_DLs\EAC Rips\Andy Kirk And His Twelve Clouds Of Joy - 1940-1942 (1993) [FLAC] {Chronological Classics 681}\21 - Take It And Git.wav
     Pre-gap length  0:00:02.24
     Peak level 60.4 %
     Extraction speed 8.5 X
     Track quality 100.0 %
     Test CRC 0F538B92
     Copy CRC 0F538B92
     Accurately ripped (confidence 4)  [D8717937]  (AR v1)
     Copy OK
Track 22
     Filename E:\Vuze_BitTorrent_DLs\EAC Rips\Andy Kirk And His Twelve Clouds Of Joy - 1940-1942 (1993) [FLAC] {Chronological Classics 681}\22 - Hip Hp Hooray.wav
     Pre-gap length  0:00:02.20
     Peak level 60.7 %
     Extraction speed 8.5 X
     Track quality 100.0 %
     Test CRC 515211A2
     Copy CRC 515211A2
     Accurately ripped (confidence 4)  [820FB3C4]  (AR v1)
     Copy OK
Track 23
     Filename E:\Vuze_BitTorrent_DLs\EAC Rips\Andy Kirk And His Twelve Clouds Of Joy - 1940-1942 (1993) [FLAC] {Chronological Classics 681}\23 - Unlucky Blues.wav
     Pre-gap length  0:00:01.00
     Peak level 59.5 %
     Extraction speed 6.8 X
     Track quality 99.9 %
     Test CRC 5A6CA274
     Copy CRC 5A6CA274
     Accurately ripped (confidence 4)  [ACC28AB4]  (AR v1)
     Copy OK
All tracks accurately ripped
No errors occurred
End of status report
==== Log checksum 0F7786A7CB6412DDC5EA04FAE63024580F7439B8A77391260243617693484D23 ====
Download available for power users only.
00:22
392
Нет комментариев. Ваш будет первым!