Вы используете незарегистрированную версию компонента "Вкладки"!

Поиск

1993 Adam Makowicz - Live at Maybeck Recital Hall, Vol. 24 {Concord Jazz} [CD]

1993 Adam Makowicz - Live at Maybeck Recital Hall, Vol. 24 {Concord Jazz} [CD]
Дата записи диска:
19 июля 1992
Место записи:
Maybeck Recital Hall, Berkeley, CA, USA
Дата издания диска:
1 января 1993
Издатель (лейбл):
Номер по каталогу:
CCD-4541
Носитель:
CD
Тип рипа:
tracks+.cue
Аудиокодек:
FLAC (*.flac)
Битрейт аудио:
lossless
Время звучания:
01:04:40
Наличие сканов:
да
Страна-производитель диска (релиза):
USA
Релизёр (источник):
fiks22
Лог создания рипа
EAC extraction logfile from 25. May 2006, 22:44 for CD
At Maybeck, Maybeck Recital Hall Series, volume 24 / Adam Makowicz

Used drive  : PIONEER DVD-RW  DVR-110D   Adapter: 1  ID: 0
Read mode   : Secure with NO C2, accurate stream, disable cache
Read offset correction : 48
Overread into Lead-In and Lead-Out : Yes

Used output format : C:\Program Files\FLAC\flac.exe   (User Defined Encoder)
                     128 kBit/s
                     Additional command line options : -5 -V -T "ARTIST=%a" -T "TITLE=%t" -T "ALBUM=%g" -T "DATE=%y" -T "TRACKNUMBER=%n" -T "GENRE=%m" -T "COMMENT=EAC Flac 1.1.2 -5" %s

Other options      :
    Fill up missing offset samples with silence : Yes
    Delete leading and trailing silent blocks : No
    Installed external ASPI interface

Track  1
     Filename F:\New Audio\Adam Makowicz - At Maybeck, Maybeck Recital Hall Series, volume 24 (1992) [FLAC]\01 - Tatum on my mind.wav

     Pre-gap length  0:00:02.00

     Peak level 72.7 %
     Track quality 100.0 %
     Test CRC BE239E94
     Copy CRC BE239E94
     Copy OK

Track  2
     Filename F:\New Audio\Adam Makowicz - At Maybeck, Maybeck Recital Hall Series, volume 24 (1992) [FLAC]\02 - Get out of town.wav

     Peak level 73.7 %
     Track quality 100.0 %
     Test CRC E5BDAEC0
     Copy CRC E5BDAEC0
     Copy OK

Track  3
     Filename F:\New Audio\Adam Makowicz - At Maybeck, Maybeck Recital Hall Series, volume 24 (1992) [FLAC]\03 - Easy to love.wav

     Peak level 77.2 %
     Track quality 100.0 %
     Test CRC 779ADF9E
     Copy CRC 779ADF9E
     Copy OK

Track  4
     Filename F:\New Audio\Adam Makowicz - At Maybeck, Maybeck Recital Hall Series, volume 24 (1992) [FLAC]\04 - I get a kick out of you.wav

     Peak level 64.3 %
     Track quality 100.0 %
     Test CRC 7555A6D4
     Copy CRC 7555A6D4
     Copy OK

Track  5
     Filename F:\New Audio\Adam Makowicz - At Maybeck, Maybeck Recital Hall Series, volume 24 (1992) [FLAC]\05 - You do something to me.wav

     Peak level 87.1 %
     Track quality 100.0 %
     Test CRC B6BBF260
     Copy CRC B6BBF260
     Copy OK

Track  6
     Filename F:\New Audio\Adam Makowicz - At Maybeck, Maybeck Recital Hall Series, volume 24 (1992) [FLAC]\06 - I concentrate on you.wav

     Peak level 76.6 %
     Track quality 100.0 %
     Test CRC 5939C432
     Copy CRC 5939C432
     Copy OK

Track  7
     Filename F:\New Audio\Adam Makowicz - At Maybeck, Maybeck Recital Hall Series, volume 24 (1992) [FLAC]\07 - You'd be so nice to come home to.wav

     Peak level 78.0 %
     Track quality 99.9 %
     Test CRC D3777511
     Copy CRC D3777511
     Copy OK

Track  8
     Filename F:\New Audio\Adam Makowicz - At Maybeck, Maybeck Recital Hall Series, volume 24 (1992) [FLAC]\08 - Night and day.wav

     Peak level 82.5 %
     Track quality 100.0 %
     Test CRC 263FAC6A
     Copy CRC 263FAC6A
     Copy OK

Track  9
     Filename F:\New Audio\Adam Makowicz - At Maybeck, Maybeck Recital Hall Series, volume 24 (1992) [FLAC]\09 - Begin the beguine.wav

     Peak level 80.6 %
     Track quality 100.0 %
     Test CRC 6F7D9F39
     Copy CRC 6F7D9F39
     Copy OK

Track 10
     Filename F:\New Audio\Adam Makowicz - At Maybeck, Maybeck Recital Hall Series, volume 24 (1992) [FLAC]\10 - Love for sale.wav

     Peak level 73.6 %
     Track quality 100.0 %
     Test CRC 090EB44E
     Copy CRC 090EB44E
     Copy OK

Track 11
     Filename F:\New Audio\Adam Makowicz - At Maybeck, Maybeck Recital Hall Series, volume 24 (1992) [FLAC]\11 - Just one of those things.wav

     Peak level 79.9 %
     Track quality 99.9 %
     Test CRC 58329B8A
     Copy CRC 58329B8A
     Copy OK

No errors occured

End of status report
Содержание индексной карты (.CUE)
REM GENRE Jazz
REM DATE 1993
PERFORMER "Adam Makowicz"
TITLE "Live at Maybeck Recital Hall, Vol.24"
FILE "01 - Tatum on My Mind.wav" WAVE
  TRACK 01 AUDIO
    TITLE "Tatum on My Mind"
    PERFORMER "Adam Makowicz"
    INDEX 01 00:00:00
FILE "02 - Get Out of Town.wav" WAVE
  TRACK 02 AUDIO
    TITLE "Get Out of Town"
    PERFORMER "Adam Makowicz"
    INDEX 01 00:00:00
FILE "03 - Easy to Love.wav" WAVE
  TRACK 03 AUDIO
    TITLE "Easy to Love"
    PERFORMER "Adam Makowicz"
    INDEX 01 00:00:00
FILE "04 - I Get a Kick Out of You.wav" WAVE
  TRACK 04 AUDIO
    TITLE "I Get a Kick Out of You"
    PERFORMER "Adam Makowicz"
    INDEX 01 00:00:00
FILE "05 - You Do Something to Me.wav" WAVE
  TRACK 05 AUDIO
    TITLE "You Do Something to Me"
    PERFORMER "Adam Makowicz"
    INDEX 01 00:00:00
FILE "06 - I Concentrate on You.wav" WAVE
  TRACK 06 AUDIO
    TITLE "I Concentrate on You"
    PERFORMER "Adam Makowicz"
    INDEX 01 00:00:00
FILE "07 - You'd Be So Nice to Come Home To.wav" WAVE
  TRACK 07 AUDIO
    TITLE "You'd Be So Nice to Come Home To"
    PERFORMER "Adam Makowicz"
    INDEX 01 00:00:00
FILE "08 - Night and Day.wav" WAVE
  TRACK 08 AUDIO
    TITLE "Night and Day"
    PERFORMER "Adam Makowicz"
    INDEX 01 00:00:00
FILE "09 - Begin the Beguine.wav" WAVE
  TRACK 09 AUDIO
    TITLE "Begin the Beguine"
    PERFORMER "Adam Makowicz"
    INDEX 01 00:00:00
FILE "10 - Love for Sale.wav" WAVE
  TRACK 10 AUDIO
    TITLE "Love for Sale"
    PERFORMER "Adam Makowicz"
    INDEX 01 00:00:00
FILE "11 - Just One of Those Things.wav" WAVE
  TRACK 11 AUDIO
    TITLE "Just One of Those Things"
    PERFORMER "Adam Makowicz"
    INDEX 01 00:00:00
Лог проверки качества
[CUETools log; Date: 06.06.2021 10:58:11; Version: 2.1.9]
[CTDB TOCID: uc.5l2askVhWn.QamREf62lFTS8-] found.
Track | CTDB Status
  1   | (5/5) Accurately ripped
  2   | (5/5) Accurately ripped
  3   | (5/5) Accurately ripped
  4   | (5/5) Accurately ripped
  5   | (5/5) Accurately ripped
  6   | (5/5) Accurately ripped
  7   | (5/5) Accurately ripped
  8   | (5/5) Accurately ripped
  9   | (5/5) Accurately ripped
 10   | (5/5) Accurately ripped
 11   | (5/5) Accurately ripped
[AccurateRip ID: 0019e51b-00e35bf0-a10f290b] found.
Track   [  CRC   |   V2   ] Status
 01     [9760b49a|01f66f5b] (0+2/8) Accurately ripped
 02     [091b1afc|28b901f1] (0+2/8) Accurately ripped
 03     [2bac1fff|5de858a4] (0+2/8) Accurately ripped
 04     [20a23a36|5d04e8e6] (0+2/8) Accurately ripped
 05     [abd91e51|04886aa5] (0+2/8) Accurately ripped
 06     [dd89a669|01f29e9d] (0+2/8) Accurately ripped
 07     [9f70d8ff|e4517130] (0+2/8) Accurately ripped
 08     [a794c51c|127e9555] (0+2/8) Accurately ripped
 09     [dc828fd3|98742d4c] (0+2/8) Accurately ripped
 10     [cd7a53f3|aad535b5] (0+2/8) Accurately ripped
 11     [89d46439|2119c0e8] (0+2/8) Accurately ripped
Offsetted by 1461:
 01     [1dc8ce29] (2/8) Accurately ripped
 02     [9ce09e2e] (2/8) Accurately ripped
 03     [2a7c462b] (2/8) Accurately ripped
 04     [628bddac] (2/8) Accurately ripped
 05     [9ae7a582] (2/8) Accurately ripped
 06     [975dbc0b] (2/8) Accurately ripped
 07     [1026c912] (2/8) Accurately ripped
 08     [7051051f] (2/8) Accurately ripped
 09     [79ae6ada] (2/8) Accurately ripped
 10     [c3c26fc7] (2/8) Accurately ripped
 11     [b7086f67] (2/8) Accurately ripped

Track Peak [ CRC32  ] [W/O NULL] [  LOG   ]
 --   87,1 [A9021ECD] [946B91D4]
 01   72,7 [BE239E94] [E0DBAB8F]   CRC32
 02   73,7 [E5BDAEC0] [E521B172]   CRC32
 03   77,2 [779ADF9E] [B589313E]   CRC32
 04   64,3 [7555A6D4] [C47D02B0]   CRC32
 05   87,1 [B6BBF260] [E7625ADB]   CRC32
 06   76,6 [5939C432] [913B2C81]   CRC32
 07   78,0 [D3777511] [9460786B]   CRC32
 08   82,5 [263FAC6A] [14DB9606]   CRC32
 09   80,6 [6F7D9F39] [F18BCE0C]   CRC32
 10   73,6 [090EB44E] [5B86635F]   CRC32
 11   79,9 [58329B8A] [824A9801]   CRC32
Any questions - support@pro-jazz.com. Есть вопросы - support@pro-jazz.com
15:24
91
Нет комментариев. Ваш будет первым!