Вы используете незарегистрированную версию компонента "Вкладки"!

Поиск

1992 Yosuke Yamashita - Plays Gershwin {Kitty} [CD]

1992 Yosuke Yamashita - Plays Gershwin {Kitty} [CD]
Дата записи диска:
2-3 мая 1989
Место записи:
Clinton Recording Studio, New York
Доп. инфо:

Страна-производитель диска: Япония
Год издания диска: 1992
Издатель (лейбл): Kitty-Japan
Номер по каталогу: KTCR-1186
Аудио кодек: APE (*.ape)
Тип рипа: image+.cue
Битрейт аудио: lossless
Продолжительность: 52:38
Источник (релизер): cost123 (nnm)
Наличие сканов в содержимом раздачи: да

Лог создания рипа
Exact Audio Copy V0.99 prebeta 5 from 4. May 2009

Отчёт EAC об извлечении, выполненном 27. марта 2010, 7:51

Yosuke Yamashita / Plays Gershwin

Дисковод: Optiarc DVD RW AD-7561S   Adapter: 2  ID: 1

Режим чтения                 : Достоверность
Использование точного потока : Да
Отключение кэша аудио        : Да
Использование указателей C2  : Нет

Коррекция смещения при чтении                     : 6
Способность читать области Lead-in и Lead-out     : Нет
Заполнение пропущенных сэмплов тишиной            : Да
Удаление блоков с тишиной в начале и конце        : Нет
При вычислениях CRC использовались нулевые сэмплы : Да
Интерфейс                                         : Встроенный Win32-интерфейс для Win NT/2000

Выходной формат : Внутренние WAV-операции
Формат сэмплов  : 44.100 Гц; 16 бит; стерео

TOC извлечённого CD

     Трек |   Старт  | Длительность | Начальный сектор | Конечный сектор
    ---------------------------------------------------------------------
       1  |  0:00.00 |    4:23.10   |           0      |      19734
       2  |  4:23.10 |    5:48.10   |       19735      |      45844
       3  | 10:11.20 |    8:29.48   |       45845      |      84067
       4  | 18:40.68 |    7:16.12   |       84068      |     116779
       5  | 25:57.05 |    7:03.50   |      116780      |     148554
       6  | 33:00.55 |    5:14.08   |      148555      |     172112
       7  | 38:14.63 |    5:14.07   |      172113      |     195669
       8  | 43:28.70 |    4:20.73   |      195670      |     215242
       9  | 47:49.68 |    4:48.55   |      215243      |     236897

Характеристики диапазона извлечения и сообщения об ошибках

Выбранный диапазон

     Имя файла C:\Convert\Yosuke Yamashita - Plays Gershwin.wav

     Пиковый уровень 100.0 %
     Качество диапазона 100.0 %
     CRC копии 639B6429
     Копирование... OK

Ошибок не произошло

AccurateRip: сводка

Трек  1  нет в базе данных
Трек  2  нет в базе данных
Трек  3  нет в базе данных
Трек  4  нет в базе данных
Трек  5  нет в базе данных
Трек  6  нет в базе данных
Трек  7  нет в базе данных
Трек  8  нет в базе данных
Трек  9  нет в базе данных

Ни одного трека нет в базе AccurateRip

Конец отчёта
Содержание индексной карты (.CUE)
REM GENRE Jazz
REM DATE 1989
REM DISCID 750C5609
REM COMMENT "ExactAudioCopy v0.99pb5"
PERFORMER "Yosuke Yamashita"
TITLE "Plays Gershwin"
FILE "Yosuke Yamashita - Plays Gershwin.wav" WAVE
  TRACK 01 AUDIO
    TITLE "Love Is Here to Stay"
    PERFORMER "Yosuke Yamashita"
    INDEX 01 00:00:00
  TRACK 02 AUDIO
    TITLE "A Foggy Day"
    PERFORMER "Yosuke Yamashita"
    INDEX 01 04:23:10
  TRACK 03 AUDIO
    TITLE "My Favorite Things"
    PERFORMER "Yosuke Yamashita"
    INDEX 01 10:11:20
  TRACK 04 AUDIO
    TITLE "But Not for Me"
    PERFORMER "Yosuke Yamashita"
    INDEX 01 18:40:68
  TRACK 05 AUDIO
    TITLE "I Love You Porgy"
    PERFORMER "Yosuke Yamashita"
    INDEX 01 25:57:05
  TRACK 06 AUDIO
    TITLE "It Ain't Necessarily So"
    PERFORMER "Yosuke Yamashita"
    INDEX 01 33:00:55
  TRACK 07 AUDIO
    TITLE "I Got Rhythm"
    PERFORMER "Yosuke Yamashita"
    INDEX 01 38:14:63
  TRACK 08 AUDIO
    TITLE "Someone to Watch over Me"
    PERFORMER "Yosuke Yamashita"
    INDEX 01 43:28:70
  TRACK 09 AUDIO
    TITLE "Embraceable You"
    PERFORMER "Yosuke Yamashita"
    INDEX 01 47:49:68
Any questions - support@pro-jazz.com. Есть вопросы - support@pro-jazz.com
11:01
209
Нет комментариев. Ваш будет первым!