Поиск

1992 Duke Ellington And His Orchestra - 1932-1933 {The Chronological Classics 626} [CD]

1992 Duke Ellington And His Orchestra - 1932-1933 {The Chronological Classics 626} [CD]
Стили:
Дата записи диска:
6 мая 1932 - 7 января 1933
Издатель (лейбл):
Номер по каталогу:
CC 626
Носитель:
CD
Тип рипа:
image+.cue
Аудиокодек:
FLAC (*.flac)
Битрейт аудио:
lossless
Наличие сканов:
да
Треклист:

01. Blue Harlem (05-16-32)  02:55
02. The Sheik Of Araby (05-16-32)  03:02
03. Swamy River (05-17-32)  02:59
04. Fast And Furious (05-17-32)  02:51
05. Best Wishes (05-17-32)  03:14
06. Slippery Horn (05-18-32)  03:17
07. Blue Ramble (05-18-32)  03:15
08. Clouds In My Heart (05-18-32)  03:06
09. Blue Mood (09-19-32)  02:54
10. Ducky Wucky (09-19-32)  03:07
11. Jazz Cocktail (09-21-32)  03:13
12. Lightnin' (09-21-32)  03:11
13. Maori (A Samoan Dance) (09-21-32)  03:25
14. Stars (09-22-32)  03:09
15. Swing Low (09-22-32)  02:43
16. Baby! (12-21-32)  03:07
17. Any Time, Any Day, Anywhere (12-21-32)  02:54
18. Delta Bound (12-21-32)  02:56
19. Diga Diga Doo (12-22-32)  03:07
20. I Can't Give You Anything But Love (12-22-32)  03:07
21. Porgy (12-22-32)  03:10
22. I Must Have That Man (01-07-33)  03:03
23. Baby! (01-07-33)  03:10

Состав:
  • Ivie Anderson     Vocals
  • Barney Bigard     Clarinet, Composer, Sax (Tenor)
  • Wellman Braud     Bass, String Bass
  • Lawrence Brown     Trombone
  • Harry Carney     Baritone, Clarinet, Sax (Alto), Sax (Baritone)
  • Benny Carter     Arranger, Composer
  • Duke Ellington     Arranger, Composer, Director, Piano
  • Sonny Greer     Drums
  • Fred Guy     Banjo, Guitar
  • Adelaide Hall     Vocals
  • Otto Hardwick     Sax (Alto), Sax (Baritone), Sax (Bass)
  • Johnny Hodges     Clarinet, Sax (Alto), Sax (Soprano)
  • Freddie Jenkins     Trumpet
  • Freddy Jenkins     Trumpet
  • The Mills Brothers     Vocal Group
  • Donald Mills     Vocals
  • Harry Mills     Vocals
  • Herbert Mills     Vocals
  • John H.R. Mills     Vocals
  • Ray Mitchell     Vocals
  • Joe "Tricky Sam" Nanton     Trombone
  • Anatol Schenker     Liner Notes
  • Juan Tizol     Trombone (Valve)
  • Ethel Waters     Vocals
  • Arthur Whetsol     Trumpet
  • Cootie Williams     Trumpet
Лог создания рипа
Exact Audio Copy V0.99 prebeta 4 from 23. January 2008

EAC extraction logfile from 18. April 2008, 8:14

Duke Ellington and His Orchestra / 1932-1933

Used drive  : ATAPI   DVD A  DH20A3H   Adapter: 1  ID: 1

Read mode               : Secure
Utilize accurate stream : Yes
Defeat audio cache      : Yes
Make use of C2 pointers : No

Read offset correction                      : 6
Overread into Lead-In and Lead-Out          : No
Fill up missing offset samples with silence : Yes
Delete leading and trailing silent blocks   : No
Null samples used in CRC calculations       : Yes
Used interface                              : Installed external ASPI interface

Used output format              : User Defined Encoder
Selected bitrate                : 768 kBit/s
Quality                         : High
Add ID3 tag                     : No
Command line compressor         : C:\Program Files\Exact Audio Copy\flac.exe
Additional command line options : -V -8 -T "artist=%a" -T "title=%t" -T "album=%g" -T "date=%y" -T "tracknumber=%n" -T "genre=%m" %s


TOC of the extracted CD

     Track |   Start  |  Length  | Start sector | End sector 
    ---------------------------------------------------------
        1  |  0:00.32 |  2:54.68 |        32    |    13149   
        2  |  2:55.25 |  3:01.60 |     13150    |    26784   
        3  |  5:57.10 |  2:58.47 |     26785    |    40181   
        4  |  8:55.57 |  2:50.48 |     40182    |    52979   
        5  | 11:46.30 |  3:14.17 |     52980    |    67546   
        6  | 15:00.47 |  3:17.00 |     67547    |    82321   
        7  | 18:17.47 |  3:15.30 |     82322    |    96976   
        8  | 21:33.02 |  3:05.65 |     96977    |   110916   
        9  | 24:38.67 |  2:53.53 |    110917    |   123944   
       10  | 27:32.45 |  3:06.45 |    123945    |   137939   
       11  | 30:39.15 |  3:12.62 |    137940    |   152401   
       12  | 33:52.02 |  3:11.00 |    152402    |   166726   
       13  | 37:03.02 |  3:24.73 |    166727    |   182099   
       14  | 40:28.00 |  3:09.12 |    182100    |   196286   
       15  | 43:37.12 |  2:43.23 |    196287    |   208534   
       16  | 46:20.35 |  3:07.15 |    208535    |   222574   
       17  | 49:27.50 |  2:54.37 |    222575    |   235661   
       18  | 52:22.12 |  2:56.08 |    235662    |   248869   
       19  | 55:18.20 |  3:06.55 |    248870    |   262874   
       20  | 58:25.00 |  3:06.50 |    262875    |   276874   
       21  | 61:31.50 |  3:10.27 |    276875    |   291151   
       22  | 64:42.02 |  3:03.33 |    291152    |   304909   
       23  | 67:45.35 |  3:09.45 |    304910    |   319129   


Range status and errors

Selected range

     Filename D:\WinRar\Duke Ellington - 1932-1933 (Chronogical Classics) [FLAC Full Scans]\Duke Ellington and His Orchestra - 1932-1933.wav

     Peak level 99.9 %
     Range quality 99.9 %
     Test CRC 780B8621
     Copy CRC 780B8621
     Copy OK

No errors occurred

 
AccurateRip summary
 
Track  1  not present in database
Track  2  not present in database
Track  3  not present in database
Track  4  not present in database
Track  5  not present in database
Track  6  not present in database
Track  7  not present in database
Track  8  not present in database
Track  9  not present in database
Track 10  not present in database
Track 11  not present in database
Track 12  not present in database
Track 13  not present in database
Track 14  not present in database
Track 15  not present in database
Track 16  not present in database
Track 17  not present in database
Track 18  not present in database
Track 19  not present in database
Track 20  not present in database
Track 21  not present in database
Track 22  not present in database
Track 23  not present in database
 
None of the tracks are present in the AccurateRip database

End of status report
По всем вопросам пишите личное сообщение пользователю M0p94ok.
09:38
201
Нет комментариев. Ваш будет первым!