Поиск

1992 Benny Carter And His Orchestra - 1940-1941 {The Chronological Classics 631} [CD]

1992 Benny Carter And His Orchestra - 1940-1941 {The Chronological Classics 631} [CD]
Дата записи диска:
25 мая 1940 - 16 октября 1941
Издатель (лейбл):
Номер по каталогу:
CC 631
Носитель:
CD
Тип рипа:
tracks+.cue
Аудиокодек:
FLAC (*.flac)
Битрейт аудио:
lossless
Время звучания:
01:10:42
Наличие сканов:
да

01. I Can't Believe That You're in Love With Me (Gaskill, McHugh) - 4:05
02. Joe Turner Blues (Handy) - 2:42
03. Beale Street Blues (Handy) - 2:34
04. By the Watermelon Vine, Lindy Lou (Allen) - 3:13
05. The Last Kiss You Gave Me (Ruby) - 3:12
06. Boogie Woogie Sugar Blues (Fletcher, Williams) - 3:04
07. I've Been in Love Before (Hollander, Loesser) - 3:08
08. All of Me (Marks, Simons) - 3:18
09. The Very Thought of You (Noble) - 3:05
10. Cocktails for Two (Coslow, Johnston) - 3:03
11. Takin' My Time (Carter) - 3:21
12. Cuddle up, Huddle Up (Carter) - 2:44
13. Ev'ry Goodbye Ain't Gone (Carter) - 3:13
14. Babalu (Lecuona) - 3:04
15. There! I've Said It Again (Evans, Mann) - 3:03
16. Midnight (Gomez, Parker) - 3:16
17. My Favorite Blues (Carter) - 3:06
18. Lullaby to a Dream (Carter) - 3:07
19. What a Diff'rence a Day Made (Adams, Grever) - 3:02
20. Sunday (Conn, Krueger, Miller, Styne) - 2:41
21. Ill Wind (Arlen, Koehler) - 3:00
22. Back Bay Boogie (Carter) - 2:52
23. Tree of Hope (Carter) - 2:49

Состав:
 
  • Bernard Addison     Guitar
  • Hayes Alvis     Bass, Sax (Baritone)
  • Jimmy Archey     Trombone
  • Georgie Auld     Sax (Tenor)
  • Eddie Barefield     Sax (Alto)
  • Everett Barksdale     Guitar
  • Emmett Berry     Trumpet
  • Joe Britton     Trombone
  • Benny Carter     Clarinet, Composer, Director, Double Bass, Piano, Sax (Alto), Trumpet
  • Big Sid Catlett     Drums
  • Doc Cheatham     Trumpet
  • Bill Coleman     Trumpet
  • Sidney DeParis     Trumpet
  • Vic Dickenson     Trombone
  • George Dorsey     Sax (Alto)
  • Charles Drayton     Bass, Sax (Baritone)
  • Roy Eldridge     Trumpet
  • Ron Felton     Vocals
  • Alfred M. Gibson     Sax (Tenor)
  • Coleman Hawkins     Sax (Tenor)
  • J.C. Heard     Drums
  • Chauncey Houghton     Sax (Alto)
  • George Irish     Sax (Tenor)
  • George James     Sax (Alto), Sax (Baritone)
  • Jonah Jones     Trumpet
  • John Kirby     Bass, Sax (Baritone)
  • Bill Lewis     Guitar (Electric)
  • Ulysses Livingston     Guitar
  • John McConnell     Trombone
  • The Mills Brothers     Vocals
  • Lincoln Mills     Trumpet
  • Fred Mitchell     Sax (Tenor)
  • Benny Morton     Trombone
  • Wilson Myers     Bass, Sax (Baritone)
  • Yank Porter     Drums
  • Ernie Powell     Sax (Tenor)
  • Ernest Purce     Sax (Alto)
  • William Purnell     Drums
  • Rostelle Reese     Trumpet
  • Milt Robinson     Trombone
  • Anatol Schenker     Liner Notes
  • Stafford Simon     Sax (Tenor)
  • Russell Smith     Trumpet
  • Maxine Sullivan     Vocals
  • Al Taylor     Drums
  • Herb Thomas     Guitar
  • Big Joe Turner     Vocals
  • Madison Vaughan     Trombone
  • Bill White     Sax (Alto)
  • Sonny White     Piano
  • Bobby Williams     Trumpet
  • Freddy Williams     Sax (Tenor)
  • Nathaniel Williams     Trumpet
Лог создания рипа
EAC extraction logfile from 30. October 2007, 23:33 for CD
Benny Carter / 1940 - 1941
Used drive  : HL-DT-STCDRW/DVD GCC4482   Adapter: 1  ID: 0
Read mode   : Secure with NO C2, accurate stream, disable cache
Read offset correction : 6
Overread into Lead-In and Lead-Out : No
Used output format : C:\Eac\Codecs\flac.exe   (User Defined Encoder)
                     320 kBit/s
                     Additional command line options : -8 -V -T "artist=%a" -T "title=%t" -T "album=%g" -T "date=%y" -T "tracknumber=%n" -T "genre=%m" -T "comment=EAC Flac 1.1.2 -8" %s
Other options      :
    Fill up missing offset samples with silence : Yes
    Delete leading and trailing silent blocks : No
    Installed external ASPI interface
Track  1
     Filename C:\Documents and Settings\bc\01 - I Can't Believe You're In Love With Me.wav
     Pre-gap length  0:00:02.44
     Peak level 84.1 %
     Track quality 100.0 %
     Test CRC B412CC1E
     Copy CRC B412CC1E
     Copy OK
Track  2
     Filename C:\Documents and Settings\bc\02 - Joe Turner Blues.wav
     Pre-gap length  0:00:01.00
     Peak level 75.1 %
     Track quality 100.0 %
     Test CRC 6922FF39
     Copy CRC 6922FF39
     Copy OK
Track  3
     Filename C:\Documents and Settings\bc\03 - Beale Steet Blues.wav
     Pre-gap length  0:00:01.00
     Peak level 75.3 %
     Track quality 100.0 %
     Test CRC 62C794FB
     Copy CRC 62C794FB
     Copy OK
Track  4
     Filename C:\Documents and Settings\bc\04 - By The  Watermelon Vine, Lindy Lou.wav
     Pre-gap length  0:00:01.33
     Peak level 97.3 %
     Track quality 100.0 %
     Test CRC 388BC708
     Copy CRC 388BC708
     Copy OK
Track  5
     Filename C:\Documents and Settings\bc\05 - The Last Kiss You Gave Me.wav
     Pre-gap length  0:00:01.00
     Peak level 74.3 %
     Track quality 100.0 %
     Test CRC 28C1DFEF
     Copy CRC 28C1DFEF
     Copy OK
Track  6
     Filename C:\Documents and Settings\bc\06 - Boogie Woogie Sugar Blues.wav
     Pre-gap length  0:00:01.00
     Peak level 73.5 %
     Track quality 99.9 %
     Test CRC 96B75695
     Copy CRC 96B75695
     Copy OK
Track  7
     Filename C:\Documents and Settings\bc\07 - I've Been In Love Before.wav
     Pre-gap length  0:00:01.00
     Peak level 63.9 %
     Track quality 100.0 %
     Test CRC 626CB262
     Copy CRC 626CB262
     Copy OK
Track  8
     Filename C:\Documents and Settings\bc\08 - All Of Me.wav
     Pre-gap length  0:00:01.00
     Peak level 82.5 %
     Track quality 100.0 %
     Test CRC 1EFD797B
     Copy CRC 1EFD797B
     Copy OK
Track  9
     Filename C:\Documents and Settings\bc\09 - The Very Thought Of You.wav
     Pre-gap length  0:00:01.00
     Peak level 77.3 %
     Track quality 100.0 %
     Test CRC 2C5C5AEB
     Copy CRC 2C5C5AEB
     Copy OK
Track 10
     Filename C:\Documents and Settings\bc\10 - Cocktails For Two.wav
     Pre-gap length  0:00:01.00
     Peak level 86.0 %
     Track quality 100.0 %
     Test CRC 6BCD2EF6
     Copy CRC 6BCD2EF6
     Copy OK
Track 11
     Filename C:\Documents and Settings\bc\11 - Takin' My Time.wav
     Pre-gap length  0:00:01.00
     Peak level 92.8 %
     Track quality 100.0 %
     Test CRC 2F35837A
     Copy CRC 2F35837A
     Copy OK
Track 12
     Filename C:\Documents and Settings\bc\12 - Cuddle Up, Huddle Up.wav
     Pre-gap length  0:00:01.00
     Peak level 78.6 %
     Track quality 99.9 %
     Test CRC 624A36B9
     Copy CRC 624A36B9
     Copy OK
Track 13
     Filename C:\Documents and Settings\bc\13 - Ev'ry Goodbye Ain't Gone.wav
     Pre-gap length  0:00:01.00
     Peak level 88.0 %
     Track quality 99.9 %
     Test CRC 3977B7F6
     Copy CRC 3977B7F6
     Copy OK
Track 14
     Filename C:\Documents and Settings\bc\14 - Babalu.wav
     Pre-gap length  0:00:01.00
     Peak level 76.2 %
     Track quality 100.0 %
     Test CRC D3156C03
     Copy CRC D3156C03
     Copy OK
Track 15
     Filename C:\Documents and Settings\bc\15 - There I've Said It Again.wav
     Pre-gap length  0:00:01.00
     Peak level 88.9 %
     Track quality 100.0 %
     Test CRC DEA75C62
     Copy CRC DEA75C62
     Copy OK
Track 16
     Filename C:\Documents and Settings\bc\16 - Midnight.wav
     Pre-gap length  0:00:01.00
     Peak level 81.0 %
     Track quality 100.0 %
     Test CRC 59100664
     Copy CRC 59100664
     Copy OK
Track 17
     Filename C:\Documents and Settings\bc\17 - My Favorite Blues.wav
     Pre-gap length  0:00:01.00
     Peak level 91.3 %
     Track quality 100.0 %
     Test CRC B14E8D8D
     Copy CRC B14E8D8D
     Copy OK
Track 18
     Filename C:\Documents and Settings\bc\18 - Lullaby To A Dream.wav
     Pre-gap length  0:00:01.00
     Peak level 97.0 %
     Track quality 100.0 %
     Test CRC 5FE58E70
     Copy CRC 5FE58E70
     Copy OK
Track 19
     Filename C:\Documents and Settings\bc\19 - What A Difference A Day Made.wav
     Pre-gap length  0:00:01.00
     Peak level 90.8 %
     Track quality 100.0 %
     Test CRC 6EC3D600
     Copy CRC 6EC3D600
     Copy OK
Track 20
     Filename C:\Documents and Settings\bc\20 - Sunday.wav
     Pre-gap length  0:00:01.00
     Peak level 81.9 %
     Track quality 100.0 %
     Test CRC 7A09A30C
     Copy CRC 7A09A30C
     Copy OK
Track 21
     Filename C:\Documents and Settings\bc\21 - Ill Wind.wav
     Pre-gap length  0:00:01.00
     Peak level 81.4 %
     Track quality 100.0 %
     Test CRC 41C501C1
     Copy CRC 41C501C1
     Copy OK
Track 22
     Filename C:\Documents and Settings\bc\22 - Back Bay Boogie.wav
     Pre-gap length  0:00:01.00
     Peak level 86.2 %
     Track quality 100.0 %
     Test CRC FE3B9CFA
     Copy CRC FE3B9CFA
     Copy OK
Track 23
     Filename C:\Documents and Settings\bc\23 - Tree Of Hope.wav
     Pre-gap length  0:00:01.00
     Peak level 86.5 %
     Track quality 100.0 %
     Test CRC F184AC2E
     Copy CRC F184AC2E
     Copy OK
No errors occured
End of status report
Приватный:
Да (DHT отключён)
Размер:
288.31 Мб (302,312,178 байт) » файлов: 33
Участники:
93 раздают, 0 качают (93 участников всего)
Внешние участники:
--- [ Обновить ]
00:26
773
Нет комментариев. Ваш будет первым!