Поиск

1991 Ron Carter, Richard Galliano - Panamanhattan

1991 Ron Carter, Richard Galliano - Panamanhattan
Стили:
Страна-производитель диска (релиза):
France
Дата записи диска:
23 июля 1990
Дата издания диска:
1991
Издатель (лейбл):
Номер по каталогу:
22100
Носитель:
CD
Битрейт аудио:
lossless
Аудиокодек:
FLAC (*.flac)
Тип рипа:
tracks+.cue
Время звучания:
50:37
Наличие сканов:
  • да
Релизёр (источник):
snegovik
Треклист:
01. Summer In Central Park (5:43)
02. Spleen (7:08)
03. Doom (4:50)
04. Alee Des Brouillards (3:36)
05. A Small Ballad (5:43)
06. Portrait Of Jennie (7:37)
07. Ballade Pour Marion (4:24)
08. Little Waltz (7:27)
Состав:
  • Phillippe Briday Producer
  • Gordon Burdge Composer
  • Ron Carter Bass, Cello, Composer
  • Philippe Gaillot Engineer, Recording
  • Richard Galliano Accordion, Composer
  • Francois Lacharme Producer
Лог создания рипа
EAC extraction logfile from 23. November 2004, 16:50 for CD
Richard Gallian0 / Richard Galliano Ron Carter / Panamanhattan
Used drive : MATSHITAUJDA745 DVD/CDRW Adapter: 2 ID: 0
Read mode : Secure with NO C2, accurate stream, disable cache
Read offset correction : 102
Overread into Lead-In and Lead-Out : Yes
Used output format : Internal WAV Routines 44.100 Hz; 16 Bit; Stereo
Other options : Fill up missing offset samples with silence : No Delete leading and trailing silent blocks : No Installed external ASPI interface
Track 1 Filename C:\Documents and Settings\ymilner.DAN\My Documents\Audio\Ron Carter Richard Galliano - Paramanhattan (1991)[FLAC]\01 - Summer In Central Park .wav Peak level 95.3 % Track quality 100.0 % Test CRC D446C9E9 Copy CRC D446C9E9 Copy OK
Track 2 Filename C:\Documents and Settings\ymilner.DAN\My Documents\Audio\Ron Carter Richard Galliano - Paramanhattan (1991)[FLAC]\02 - Spleen .wav Peak level 99.9 % Track quality 100.0 % Test CRC 82862B23 Copy CRC 82862B23 Copy OK
Track 3 Filename C:\Documents and Settings\ymilner.DAN\My Documents\Audio\Ron Carter Richard Galliano - Paramanhattan (1991)[FLAC]\03 - Doom .wav Peak level 90.5 % Track quality 100.0 % Test CRC 47F4D2CA Copy CRC 47F4D2CA Copy OK
Track 4 Filename C:\Documents and Settings\ymilner.DAN\My Documents\Audio\Ron Carter Richard Galliano - Paramanhattan (1991)[FLAC]\04 - Allee des Brouillards .wav Peak level 74.3 % Track quality 100.0 % Test CRC 40D603E7 Copy CRC 40D603E7 Copy OK
Track 5 Filename C:\Documents and Settings\ymilner.DAN\My Documents\Audio\Ron Carter Richard Galliano - Paramanhattan (1991)[FLAC]\05 - A Small Ballad .wav Peak level 83.4 % Track quality 99.9 % Test CRC 6B4E02B8 Copy CRC 6B4E02B8 Copy OK
Track 6 Filename C:\Documents and Settings\ymilner.DAN\My Documents\Audio\Ron Carter Richard Galliano - Paramanhattan (1991)[FLAC]\06 - Portrait Of Jennie .wav Peak level 97.6 % Track quality 100.0 % Test CRC B8420FB8 Copy CRC B8420FB8 Copy OK
Track 7 Filename C:\Documents and Settings\ymilner.DAN\My Documents\Audio\Ron Carter Richard Galliano - Paramanhattan (1991)[FLAC]\07 - Ballade Pour Marion .wav Peak level 99.1 % Track quality 100.0 % Test CRC 09DCCBDC Copy CRC 09DCCBDC Copy OK
Track 8 Filename C:\Documents and Settings\ymilner.DAN\My Documents\Audio\Ron Carter Richard Galliano - Paramanhattan (1991)[FLAC]\08 - Little Waltz .wav Peak level 100.0 % Track quality 99.9 % Test CRC F7804FEF Copy CRC F7804FEF Copy OK
Track 9 Filename C:\Documents and Settings\ymilner.DAN\My Documents\Audio\Ron Carter Richard Galliano - Paramanhattan (1991)[FLAC]\09 - Des Voliers .wav Suspicious position 0:04:09 Peak level 100.0 % Track quality 99.7 % Test CRC 9A4AF6EE Copy CRC 9A4AF6EE Copy finished
There were errors
End of status report
Содержание индексной карты (.CUE)
CATALOG 0000000000000
PERFORMER "Richard Gallian0"
TITLE "Richard Galliano Ron Carter / Panamanhattan"
FILE "01 - Summer In Central Park .wav" WAVE TRACK 01 AUDIO TITLE "Summer In Central Park" PERFORMER "Richard Gallian0" INDEX 01 00:00:00 TRACK 02 AUDIO TITLE "Spleen" PERFORMER "Richard Gallian0" INDEX 00 05:40:14
FILE "02 - Spleen .wav" WAVE INDEX 01 00:00:00 TRACK 03 AUDIO TITLE "Doom" PERFORMER "Richard Gallian0" INDEX 00 07:03:46
FILE "03 - Doom .wav" WAVE INDEX 01 00:00:00 TRACK 04 AUDIO TITLE "Allйe des Brouillards" PERFORMER "Richard Gallian0" INDEX 00 04:48:12
FILE "04 - Allйe des Brouillards .wav" WAVE INDEX 01 00:00:00 TRACK 05 AUDIO TITLE "A Small Ballad" PERFORMER "Richard Gallian0" INDEX 00 03:33:30
FILE "05 - A Small Ballad .wav" WAVE INDEX 01 00:00:00 TRACK 06 AUDIO TITLE "Portrait Of Jennie" PERFORMER "Richard Gallian0" INDEX 00 05:38:37
FILE "06 - Portrait Of Jennie .wav" WAVE INDEX 01 00:00:00 TRACK 07 AUDIO TITLE "Ballade Pour Marion" PERFORMER "Richard Gallian0" INDEX 00 07:33:32
FILE "07 - Ballade Pour Marion .wav" WAVE INDEX 01 00:00:00 TRACK 08 AUDIO TITLE "Little Waltz" PERFORMER "Richard Gallian0" INDEX 00 04:19:42
FILE "08 - Little Waltz .wav" WAVE INDEX 01 00:00:00 TRACK 09 AUDIO TITLE "Des Voliers" PERFORMER "Richard Gallian0" INDEX 00 07:24:19
FILE "09 - Des Voliers .wav" WAVE INDEX 01 00:00:00
Приватный:
Нет (DHT включён)
Размер:
234.76 Мб (246,159,482 байт) » файлов: 18
Участники:
0 раздают, 0 качают (0 участников всего)
Внешние участники:
5 раздают, 1 качают (6 участников всего) [ Обновить ]
10:43
106
RSS
Нет комментариев. Ваш будет первым!