Поиск

1991 Marian McPartland - Live at Maybeck Recital Hall, Vol. 9 {Concord Jazz} [CD]

1991 Marian McPartland - Live at Maybeck Recital Hall, Vol. 9 {Concord Jazz} [CD]
Дата записи диска:
20 января 1991
Место записи:
Maybeck Recital Hall, Berkeley, CA, USA
Издатель (лейбл):
Номер по каталогу:
CCD4460
Носитель:
WEB
Тип рипа:
tracks
Аудиокодек:
FLAC (*.flac)
Битрейт аудио:
lossless
Время звучания:
01:06:52
Наличие сканов:
только обложка
Страна-производитель диска (релиза):
USA
Релизёр (источник):
M0p94ok
Лог создания рипа
EAC extraction logfile from 7. March 2007, 19:33 for CD
Marian McPartland / Live At Maybeck Recital Hall - Volume 9

Used drive  : TEAC    DVD+RW DV-W58E   Adapter: 1  ID: 0
Read mode   : Secure with C2, accurate stream, disable cache
Read offset correction : 686
Overread into Lead-In and Lead-Out : No

Used output format : Internal WAV Routines
                     44.100 Hz; 16 Bit; Stereo

Other options      :
    Fill up missing offset samples with silence : Yes
    Delete leading and trailing silent blocks : No
    Installed external ASPI interface

Track  1
     Pre-gap length  0:00:02.00
     Peak level 93.6 %
     Track quality 100.0 %
     Test CRC 6AD6D37F
     Copy CRC 6AD6D37F
     Copy OK
Track  2
     Peak level 100.0 %
     Track quality 100.0 %
     Test CRC BBFF7C4F
     Copy CRC BBFF7C4F
     Copy OK
Track  3
     Peak level 100.0 %
     Track quality 100.0 %
     Test CRC 33F384A1
     Copy CRC 33F384A1
     Copy OK
Track  4
     Peak level 99.3 %
     Track quality 100.0 %
     Test CRC 580969F6
     Copy CRC 580969F6
     Copy OK
Track  5
     Peak level 100.0 %
     Track quality 100.0 %
     Test CRC 52E81154
     Copy CRC 52E81154
     Copy OK
Track  6
     Peak level 100.0 %
     Track quality 100.0 %
     Test CRC 0FA4041C
     Copy CRC 0FA4041C
     Copy OK
Track  7
     Peak level 100.0 %
     Track quality 100.0 %
     Test CRC B880E2D5
     Copy CRC B880E2D5
     Copy OK
Track  8
     Peak level 100.0 %
     Track quality 100.0 %
     Test CRC 0C814247
     Copy CRC 0C814247
     Copy OK
Track  9
     Peak level 99.6 %
     Track quality 100.0 %
     Test CRC 28B7D249
     Copy CRC 28B7D249
     Copy OK
Track 10
     Peak level 79.2 %
     Track quality 100.0 %
     Test CRC 8F8C8C9D
     Copy CRC 8F8C8C9D
     Copy OK
Track 11
     Peak level 99.0 %
     Track quality 100.0 %
     Test CRC D67B2372
     Copy CRC D67B2372
     Copy OK
Track 12
     Peak level 100.0 %
     Track quality 100.0 %
     Test CRC 7CA04FDD
     Copy CRC 7CA04FDD
     Copy OK
Track 13
     Peak level 80.7 %
     Track quality 100.0 %
     Test CRC 91AE0D71
     Copy CRC 91AE0D71
     Copy OK
Track 14
     Peak level 98.7 %
     Track quality 100.0 %
     Test CRC 46F35B01
     Copy CRC 46F35B01
     Copy OK
Track 15
     Peak level 90.3 %
     Track quality 100.0 %
     Test CRC 4E3C1357
     Copy CRC 4E3C1357
     Copy OK
Track 16
     Peak level 99.8 %
     Track quality 100.0 %
     Test CRC C19692B8
     Copy CRC C19692B8
     Copy OK

No errors occured
End of status report
No seeders - write personal message to M0p94ok. Any questions - support@pro-jazz.com.
Нет сидеров - пишите в личку M0p94ok. Есть вопросы - support@pro-jazz.com
16:19
84
17:02