Поиск

1991 Kenny Barron - Live at Maybeck Recital Hall, Vol.10 {Concord Jazz} [CD]

1991 Kenny Barron - Live at Maybeck Recital Hall, Vol.10 {Concord Jazz} [CD]
Стили:
Дата записи диска:
3 декабря 1990
Место записи:
Maybeck Recital Hall, Berkeley, CA, USA
Издатель (лейбл):
Номер по каталогу:
CCD-4466
Носитель:
CD
Тип рипа:
tracks+.cue
Аудиокодек:
FLAC (*.flac)
Битрейт аудио:
lossless
Время звучания:
01:03:25
Наличие сканов:
да
Страна-производитель диска (релиза):
USA
Релизёр (источник):
demais

Треклист:

01. I'm Getting Sentimental over You (Washington-Bassman) - 7:18
02. Witchcraft (Coleman-Leigh) - 8:50
03. Bud-Like (Barron) - 5:36
04. Spring Is Here (Hart-Rodgers) - 10:49
05. Well You Needn't (Monk) - 6:50
06. Skylark (Mercer-Carmichael) - 8:28
07. And Then Again (Barron) - 5:29
08. Sunshower (Barron) - 10:05

Доп. инфо:

Кенни Бэррон получил возможность продемонстрировать более широкий спектр своих влияний, чем обычно в групповом формате, создавая более мрачный тон фортепьяно Maybeck Yamaha, чем некоторые другие участники серии, сольный концерт одного из невоспетых маса. Бэррон начинается с шаговой «Я становлюсь сентиментальной из-за тебя», в которой есть несколько незначительных шуток (это живое выступление, ребята), а затем исследуется ряд разнообразных стилей под эгидой бопа. "Bud-Like" Бэррона напоминает "Un Poco Loco", большую часть времени построенный на остинато-басовом паттерне, с остроумным "Bemsha Swing". Как обычно с Maybeck, звучание яркого хрупкого фортепиано Yamaha в зале блестяще передано нотами джазового фортепиано. Будь то погружение в канон пост-бопа с "Whisper Not" Бенни Голсона, "Bemsha Swing" Телониуса Монка или "Airegin" Сонни Роллинза, или прослушивание редко слышимых записей из сборника песен, таких как "It Never Was You" Курта Вейля. или «Прикосновение губ» Рэя Ноубла, Гальпер выполняет каждую задачу, вооружившись тонким чувством ритма и кладезем гармонических знаний. Он насквозь джазовый пианист, которому не хватает сверхточной техники, которую классическая подготовка даровала некоторым из его коллег-музыкантов. Но он может дать волю своей собственной вспышке, когда ему нужно - засвидетельствуйте его короткое и сладкое тур де силы "All God Chillun Got Rhythm". Чтобы лучше понять надежный внутренний метроном Гальпера, посмотрите «Поцелуй, чтобы воплотить мечту». Такое твердое время - результат игры с бесчисленными ритм-секциями на бесчисленных эстрадах. Даже играя соло, Гальпер слышит оркестр.

Лог создания рипа
Exact Audio Copy V1.0 beta 3 from 29. August 2011

EAC extraction logfile from 18. December 2016, 11:54

Kenny Barron / Live At Maybeck Recital Hall, Volume 10

Used drive  : PIONEER DVD-RW  DVR-215D   Adapter: 0  ID: 5

Read mode               : Secure
Utilize accurate stream : Yes
Defeat audio cache      : Yes
Make use of C2 pointers : No

Read offset correction                      : 48
Overread into Lead-In and Lead-Out          : No
Fill up missing offset samples with silence : Yes
Delete leading and trailing silent blocks   : No
Null samples used in CRC calculations       : Yes
Used interface                              : Native Win32 interface for Win NT & 2000
Gap handling                                : Appended to previous track

Used output format              : User Defined Encoder
Selected bitrate                : 1024 kBit/s
Quality                         : High
Add ID3 tag                     : No
Command line compressor         : C:\Program Files (x86)\Exact Audio Copy\FLAC\FLAC.EXE
Additional command line options : -8 -V -T "ARTIST=%artist%" -T "TITLE=%title%" -T "ALBUM=%albumtitle%" -T "DATE=%year%" -T "TRACKNUMBER=%tracknr%" -T "GENRE=%genre%" -T "PERFORMER=%albuminterpret%" -T "COMPOSER=%composer%" %haslyrics%--tag-from-file=LYRICS="%lyricsfile%"%haslyrics% -T "ALBUMARTIST=%albumartist%" -T "DISCNUMBER=%cdnumber%" -T "TOTALDISCS=%totalcds%" -T "TOTALTRACKS=%numtracks%" -T "COMMENT=%comment%" %source% -o %dest%

TOC of the extracted CD

     Track |   Start  |  Length  | Start sector | End sector
    ---------------------------------------------------------
        1  |  0:00.00 |  7:17.57 |         0    |    32831
        2  |  7:17.57 |  8:49.70 |     32832    |    72576
        3  | 16:07.52 |  5:35.40 |     72577    |    97741
        4  | 21:43.17 | 10:48.68 |     97742    |   146409
        5  | 32:32.10 |  6:50.12 |    146410    |   177171
        6  | 39:22.22 |  8:27.63 |    177172    |   215259
        7  | 47:50.10 |  5:29.22 |    215260    |   239956
        8  | 53:19.32 | 10:04.68 |    239957    |   285324

Track  1

     Filename C:\_transfert\01 - I'm Getting Sentimental Over You.wav

     Pre-gap length  0:00:02.00

     Peak level 83.5 %
     Extraction speed 5.0 X
     Track quality 100.0 %
     Test CRC 7A547F15
     Copy CRC 7A547F15
     Cannot be verified as accurate (confidence 4)  [C79627AD], AccurateRip returned [021594DF]  (AR v2)
     Copy OK

Track  2

     Filename C:\_transfert\02 - Witchcraft.wav

     Peak level 83.6 %
     Extraction speed 6.0 X
     Track quality 100.0 %
     Test CRC D2FF840E
     Copy CRC D2FF840E
     Cannot be verified as accurate (confidence 4)  [19211B64], AccurateRip returned [6D899294]  (AR v2)
     Copy OK

Track  3

     Filename C:\_transfert\03 - Bud-Like.wav

     Peak level 77.9 %
     Extraction speed 6.4 X
     Track quality 100.0 %
     Test CRC 13DF0095
     Copy CRC 13DF0095
     Cannot be verified as accurate (confidence 4)  [37BB96B9], AccurateRip returned [49999F0D]  (AR v2)
     Copy OK

Track  4

     Filename C:\_transfert\04 - Spring Is Here.wav

     Peak level 86.1 %
     Extraction speed 7.4 X
     Track quality 100.0 %
     Test CRC 0E206F04
     Copy CRC 0E206F04
     Cannot be verified as accurate (confidence 4)  [B80C79B3], AccurateRip returned [E684A933]  (AR v2)
     Copy OK

Track  5

     Filename C:\_transfert\05 - Well You Needn't.wav

     Peak level 83.4 %
     Extraction speed 7.8 X
     Track quality 100.0 %
     Test CRC C171CD57
     Copy CRC C171CD57
     Cannot be verified as accurate (confidence 4)  [7B3729EE], AccurateRip returned [318CCB4A]  (AR v2)
     Copy OK

Track  6

     Filename C:\_transfert\06 - Skylark.wav

     Peak level 86.5 %
     Extraction speed 8.5 X
     Track quality 100.0 %
     Test CRC D890CCA1
     Copy CRC D890CCA1
     Cannot be verified as accurate (confidence 4)  [100A9DD1], AccurateRip returned [33E677DF]  (AR v2)
     Copy OK

Track  7

     Filename C:\_transfert\07 - And Then Again.wav

     Peak level 82.1 %
     Extraction speed 8.6 X
     Track quality 100.0 %
     Test CRC E936AE5C
     Copy CRC E936AE5C
     Cannot be verified as accurate (confidence 4)  [2B75C209], AccurateRip returned [099C7C93]  (AR v2)
     Copy OK

Track  8

     Filename C:\_transfert\08 - Sunshower.wav

     Peak level 80.4 %
     Extraction speed 8.9 X
     Track quality 99.9 %
     Test CRC 29028C5C
     Copy CRC 29028C5C
     Cannot be verified as accurate (confidence 4)  [9C7C9088], AccurateRip returned [8F31A94C]  (AR v2)
     Copy OK

No tracks could be verified as accurate
You may have a different pressing from the one(s) in the database

No errors occurred

End of status report

==== Log checksum 21031D8D2B2DD9456A8A49A01DAAFDF01D2C7876814385044B78336D01596E82 ====
Приватный:
Нет (DHT включён)
Размер:
271.56 Мб (284,748,372 байт) » файлов: 18
Участники:
0 раздают, 0 качают (0 участников всего)
Внешние участники:
3 раздают, 1 качают (4 участников всего) [ Обновить ]
No seeders - write personal message to M0p94ok. Нет сидеров - пишите в личку M0p94ok.
16:49
42
17:01