Поиск

1991 Lionel Hampton And His Orchestra - 1939-1940 {The Chronological Classics 562} [CD]

1991 Lionel Hampton And His Orchestra - 1939-1940 {The Chronological Classics 562} [CD]
Дата записи диска:
11 сентября 1939 - 10 мая 1940
Издатель (лейбл):
Номер по каталогу:
562
Носитель:
CD
Тип рипа:
tracks+.cue
Аудиокодек:
FLAC (*.flac)
Битрейт аудио:
lossless
Время звучания:
01:09:15
Наличие сканов:
да
Страна-производитель диска (релиза):
France

Треклист:

01. When Lights Are Low (2:16)
02. One Sweet Letter From You (3:21)
03. Hot Mallets (2:17)
04. Early Session Hop (2:42)
05. I'm On My Way From You (3:09)
06. Haven't Named It Yet (2:59)
07. The Heebie Jeebies Are Rockin' The Town (2:44)
08. The Munson Street Breakdown (3:18)
09. I've Found A New Baby (2:54)
10. I Can't Get Started (2:56)
11. Four Or Five Times (2:50)
12. Gin For Christmas (2:32)
13. Dinah (2:45)
14. My Buddy (2:48)
15. Singin' The Blues (2:56)
16. Shades Of Jade (3:27)
17. Till Tom Special (3:24)
18. Flying Home (2:59)
19. Save It, Pretty Mama (3:24)
20. Tempo And Swing (3:23)
21. House Of Morgan (3:12)
22. I'd Be Lost Without You (3:03)
23. Central Avenue Breakdown (3:05)
24. Jack The Bellboy (2:51)

Состав:
  • Henry "Red" Allen    Trumpet
  • Ernest Ashley    Guitar
  • Artie Bernstein    Bass
  • Chu Berry    Sax (Tenor)
  • Earl Bostic    Sax (Alto)
  • Benny Carter    Arranger, Composer, Sax (Alto)
  • Al Casey    Guitar
  • Big Sid Catlett    Drums
  • Charlie Christian    Composer, Guitar (Electric)
  • Cozy Cole    Drums
  • Nat King Cole    Piano
  • Ziggy Elman    Trumpet
  • Buff Estes    Sax (Alto)
  • Nick Fatool    Drums
  • Helen Forrest    Vocals
  • Dizzy Gillespie    Trumpet
  • Freddie Green    Guitar
  • Edmond Hall    Clarinet
  • Lionel Hampton    Composer, Drums, Piano, Vibraphone
  • Clyde Hart    Piano
  • Coleman Hawkins    Sax (Tenor)
  • J.C. Higginbotham    Trombone
  • Milt Hinton    Bass
  • Jerry Jerome    Sax (Tenor)
  • Budd Johnson    Sax (Tenor)
  • Slick Jones    Drums
  • Nuncio "Toots" Mondello    Clarinet, Composer, Sax (Alto)
  • Oscar Moore    Guitar
  • Wesley Prince    Bass
  • Anatol Schenker    Liner Notes
  • Zutty Singleton    Drums
  • Al Spieldock    Drums
  • Joe Sullivan    Piano
  • Ben Webster    Sax (Tenor)
Лог создания рипа
Exact Audio Copy V1.0 beta 3 from 29. August 2011
EAC extraction logfile from 1. September 2012, 10:47
Lionel Hampton And His Orchestra / 1939-1940
Used drive  : HL-DT-STDVDRAM GT20N   Adapter: 2  ID: 0
Read mode               : Secure
Utilize accurate stream : Yes
Defeat audio cache      : Yes
Make use of C2 pointers : No
Read offset correction                      : 667
Overread into Lead-In and Lead-Out          : No
Fill up missing offset samples with silence : Yes
Delete leading and trailing silent blocks   : No
Null samples used in CRC calculations       : Yes
Used interface                              : Native Win32 interface for Win NT & 2000
Gap handling                                : Appended to previous track
Used output format              : User Defined Encoder
Selected bitrate                : 1024 kBit/s
Quality                         : High
Add ID3 tag                     : No
Command line compressor         : C:\Program Files (x86)\Exact Audio Copy\Flac\flac.exe
Additional command line options : -8 -V -T "ARTIST=%artist%" -T "TITLE=%title%" -T "ALBUM=%albumtitle%" -T "DATE=%year%" -T "TRACKNUMBER=%tracknr%" -T "GENRE=%genre%" -T "PERFORMER=%albuminterpret%" -T "COMPOSER=%composer%" %haslyrics%--tag-from-file=LYRICS="%lyricsfile%"%haslyrics% -T "ALBUMARTIST=%albumartist%" -T "DISCNUMBER=%cdnumber%" -T "TOTALDISCS=%totalcds%" -T "TOTALTRACKS=%numtracks%" -T "COMMENT=%comment%" %source% -o %dest%
TOC of the extracted CD
     Track |   Start  |  Length  | Start sector | End sector
    ---------------------------------------------------------
        1  |  0:00.33 |  2:15.50 |        33    |    10207
        2  |  2:16.08 |  3:21.15 |     10208    |    25297
        3  |  5:37.23 |  2:17.15 |     25298    |    35587
        4  |  7:54.38 |  2:42.05 |     35588    |    47742
        5  | 10:36.43 |  3:09.15 |     47743    |    61932
        6  | 13:45.58 |  2:59.00 |     61933    |    75357
        7  | 16:44.58 |  2:44.02 |     75358    |    87659
        8  | 19:28.60 |  3:18.13 |     87660    |   102522
        9  | 22:46.73 |  2:54.32 |    102523    |   115604
       10  | 25:41.30 |  2:56.23 |    115605    |   128827
       11  | 28:37.53 |  2:50.37 |    128828    |   141614
       12  | 31:28.15 |  2:32.23 |    141615    |   153037
       13  | 34:00.38 |  2:45.15 |    153038    |   165427
       14  | 36:45.53 |  2:47.70 |    165428    |   178022
       15  | 39:33.48 |  2:55.55 |    178023    |   191202
       16  | 42:29.28 |  3:27.25 |    191203    |   206752
       17  | 45:56.53 |  3:24.30 |    206753    |   222082
       18  | 49:21.08 |  2:59.00 |    222083    |   235507
       19  | 52:20.08 |  3:23.72 |    235508    |   250804
       20  | 55:44.05 |  3:23.20 |    250805    |   266049
       21  | 59:07.25 |  3:11.63 |    266050    |   280437
       22  | 62:19.13 |  3:03.10 |    280438    |   294172
       23  | 65:22.23 |  3:04.45 |    294173    |   308017
       24  | 68:26.68 |  2:50.40 |    308018    |   320807
Track  1
     Filename E:\Lionel Hampton - 1939-1940 (1991) [FLAC] {Chronological Classics 562}\01 - When Lights Are Low.wav
     Pre-gap length  0:00:02.44
     Peak level 78.1 %
     Extraction speed 2.1 X
     Track quality 100.0 %
     Test CRC 192E6BB6
     Copy CRC 192E6BB6
     Accurately ripped (confidence 3)  [5290301D]  (AR v1)
     Copy OK
Track  2
     Filename E:\Lionel Hampton - 1939-1940 (1991) [FLAC] {Chronological Classics 562}\02 - One Sweet Letter from You.wav
     Pre-gap length  0:00:01.86
     Peak level 90.5 %
     Extraction speed 1.7 X
     Track quality 99.9 %
     Test CRC 3237F4C9
     Copy CRC 3237F4C9
     Accurately ripped (confidence 3)  [A36018CC]  (AR v1)
     Copy OK
Track  3
     Filename E:\Lionel Hampton - 1939-1940 (1991) [FLAC] {Chronological Classics 562}\03 - Hot Mallets.wav
     Pre-gap length  0:00:02.30
     Peak level 88.5 %
     Extraction speed 1.2 X
     Track quality 100.0 %
     Test CRC 85752E95
     Copy CRC 85752E95
     Accurately ripped (confidence 3)  [AC28E352]  (AR v1)
     Copy OK
Track  4
     Filename E:\Lionel Hampton - 1939-1940 (1991) [FLAC] {Chronological Classics 562}\04 - Early Session Hop.wav
     Pre-gap length  0:00:01.77
     Peak level 93.7 %
     Extraction speed 1.4 X
     Track quality 100.0 %
     Test CRC 89F62667
     Copy CRC 89F62667
     Accurately ripped (confidence 3)  [93B096AE]  (AR v1)
     Copy OK
Track  5
     Filename E:\Lionel Hampton - 1939-1940 (1991) [FLAC] {Chronological Classics 562}\05 - I'm on My Way from You.wav
     Pre-gap length  0:00:02.17
     Peak level 97.7 %
     Extraction speed 1.2 X
     Track quality 99.9 %
     Test CRC C9DDBA9F
     Copy CRC C9DDBA9F
     Accurately ripped (confidence 3)  [8AF52388]  (AR v1)
     Copy OK
Track  6
     Filename E:\Lionel Hampton - 1939-1940 (1991) [FLAC] {Chronological Classics 562}\06 - Haven't Named It Yet.wav
     Pre-gap length  0:00:02.37
     Peak level 92.4 %
     Extraction speed 1.5 X
     Track quality 100.0 %
     Test CRC 99737D89
     Copy CRC 99737D89
     Accurately ripped (confidence 3)  [98231DE0]  (AR v1)
     Copy OK
Track  7
     Filename E:\Lionel Hampton - 1939-1940 (1991) [FLAC] {Chronological Classics 562}\07 - The Heebie Jeebies Are Rockin' the Town.wav
     Pre-gap length  0:00:02.20
     Peak level 93.4 %
     Extraction speed 1.3 X
     Track quality 99.9 %
     Test CRC 4FE88BB6
     Copy CRC 4FE88BB6
     Accurately ripped (confidence 3)  [2277DBE5]  (AR v1)
     Copy OK
Track  8
     Filename E:\Lionel Hampton - 1939-1940 (1991) [FLAC] {Chronological Classics 562}\08 - The Munson Street Breakdown.wav
     Pre-gap length  0:00:02.22
     Peak level 75.7 %
     Extraction speed 1.4 X
     Track quality 99.9 %
     Test CRC 2DDB3A54
     Copy CRC 2DDB3A54
     Accurately ripped (confidence 3)  [9D2FF971]  (AR v1)
     Copy OK
Track  9
     Filename E:\Lionel Hampton - 1939-1940 (1991) [FLAC] {Chronological Classics 562}\09 - I've Found a New Baby.wav
     Pre-gap length  0:00:02.06
     Peak level 98.6 %
     Extraction speed 1.7 X
     Track quality 100.0 %
     Test CRC D08A69A0
     Copy CRC D08A69A0
     Accurately ripped (confidence 3)  [BE47DB1D]  (AR v1)
     Copy OK
Track 10
     Filename E:\Lionel Hampton - 1939-1940 (1991) [FLAC] {Chronological Classics 562}\10 - I Can't Get Started.wav
     Pre-gap length  0:00:02.26
     Peak level 84.6 %
     Extraction speed 1.5 X
     Track quality 99.9 %
     Test CRC EE3F47D8
     Copy CRC EE3F47D8
     Accurately ripped (confidence 3)  [AD01F65A]  (AR v1)
     Copy OK
Track 11
     Filename E:\Lionel Hampton - 1939-1940 (1991) [FLAC] {Chronological Classics 562}\11 - Four or Five Times.wav
     Pre-gap length  0:00:02.33
     Peak level 71.8 %
     Extraction speed 1.8 X
     Track quality 100.0 %
     Test CRC A254733B
     Copy CRC A254733B
     Accurately ripped (confidence 3)  [C36A0268]  (AR v1)
     Copy OK
Track 12
     Filename E:\Lionel Hampton - 1939-1940 (1991) [FLAC] {Chronological Classics 562}\12 - Gin for Christmas.wav
     Pre-gap length  0:00:02.00
     Peak level 75.7 %
     Extraction speed 1.8 X
     Track quality 100.0 %
     Test CRC A238075A
     Copy CRC A238075A
     Accurately ripped (confidence 3)  [D9FB0F31]  (AR v1)
     Copy OK
Track 13
     Filename E:\Lionel Hampton - 1939-1940 (1991) [FLAC] {Chronological Classics 562}\13 - Dinah.wav
     Pre-gap length  0:00:02.50
     Peak level 67.3 %
     Extraction speed 1.9 X
     Track quality 100.0 %
     Test CRC FE061022
     Copy CRC FE061022
     Accurately ripped (confidence 3)  [ABDA82DA]  (AR v1)
     Copy OK
Track 14
     Filename E:\Lionel Hampton - 1939-1940 (1991) [FLAC] {Chronological Classics 562}\14 - My Buddy.wav
     Pre-gap length  0:00:02.04
     Peak level 79.2 %
     Extraction speed 1.9 X
     Track quality 100.0 %
     Test CRC 4A02F1D4
     Copy CRC 4A02F1D4
     Accurately ripped (confidence 3)  [8EB13267]  (AR v1)
     Copy OK
Track 15
     Filename E:\Lionel Hampton - 1939-1940 (1991) [FLAC] {Chronological Classics 562}\15 - Singin' the Blues (Till My Daddy Comes Home).wav
     Pre-gap length  0:00:02.46
     Peak level 97.4 %
     Extraction speed 2.1 X
     Track quality 100.0 %
     Test CRC 1C9C15FE
     Copy CRC 1C9C15FE
     Accurately ripped (confidence 3)  [B875B8F7]  (AR v1)
     Copy OK
Track 16
     Filename E:\Lionel Hampton - 1939-1940 (1991) [FLAC] {Chronological Classics 562}\16 - Shades of Jade.wav
     Pre-gap length  0:00:02.28
     Peak level 71.1 %
     Extraction speed 2.1 X
     Track quality 100.0 %
     Test CRC 0C44FF2E
     Copy CRC 0C44FF2E
     Accurately ripped (confidence 3)  [56D3A7E5]  (AR v1)
     Copy OK
Track 17
     Filename E:\Lionel Hampton - 1939-1940 (1991) [FLAC] {Chronological Classics 562}\17 - Till Tom Special.wav
     Pre-gap length  0:00:01.66
     Peak level 79.9 %
     Extraction speed 2.2 X
     Track quality 100.0 %
     Test CRC 3F7DCE49
     Copy CRC 3F7DCE49
     Accurately ripped (confidence 3)  [D2F84247]  (AR v1)
     Copy OK
Track 18
     Filename E:\Lionel Hampton - 1939-1940 (1991) [FLAC] {Chronological Classics 562}\18 - Flying Home.wav
     Pre-gap length  0:00:02.20
     Peak level 78.8 %
     Extraction speed 2.2 X
     Track quality 100.0 %
     Test CRC B428A80C
     Copy CRC B428A80C
     Accurately ripped (confidence 3)  [F477AF87]  (AR v1)
     Copy OK
Track 19
     Filename E:\Lionel Hampton - 1939-1940 (1991) [FLAC] {Chronological Classics 562}\19 - Save It, Pretty Mama.wav
     Pre-gap length  0:00:02.30
     Peak level 65.8 %
     Extraction speed 2.3 X
     Track quality 100.0 %
     Test CRC 31B74388
     Copy CRC 31B74388
     Accurately ripped (confidence 3)  [79BBBD22]  (AR v1)
     Copy OK
Track 20
     Filename E:\Lionel Hampton - 1939-1940 (1991) [FLAC] {Chronological Classics 562}\20 - Tempo and Swing.wav
     Pre-gap length  0:00:01.96
     Peak level 66.2 %
     Extraction speed 2.4 X
     Track quality 100.0 %
     Test CRC 7C7123C5
     Copy CRC 7C7123C5
     Accurately ripped (confidence 3)  [0B13930B]  (AR v1)
     Copy OK
Track 21
     Filename E:\Lionel Hampton - 1939-1940 (1991) [FLAC] {Chronological Classics 562}\21 - House of Morgan.wav
     Pre-gap length  0:00:01.76
     Peak level 57.8 %
     Extraction speed 2.4 X
     Track quality 100.0 %
     Test CRC 83B2C913
     Copy CRC 83B2C913
     Accurately ripped (confidence 3)  [43E30B92]  (AR v1)
     Copy OK
Track 22
     Filename E:\Lionel Hampton - 1939-1940 (1991) [FLAC] {Chronological Classics 562}\22 - I'd Be Lost Without You.wav
     Pre-gap length  0:00:02.53
     Peak level 49.4 %
     Extraction speed 2.4 X
     Track quality 100.0 %
     Test CRC E4C2F8FA
     Copy CRC E4C2F8FA
     Accurately ripped (confidence 3)  [EBBFAAC6]  (AR v1)
     Copy OK
Track 23
     Filename E:\Lionel Hampton - 1939-1940 (1991) [FLAC] {Chronological Classics 562}\23 - Central Avenue Breakdown.wav
     Pre-gap length  0:00:02.17
     Peak level 66.6 %
     Extraction speed 2.1 X
     Track quality 99.9 %
     Test CRC 82370569
     Copy CRC 82370569
     Accurately ripped (confidence 3)  [43D517E6]  (AR v1)
     Copy OK
Track 24
     Filename E:\Lionel Hampton - 1939-1940 (1991) [FLAC] {Chronological Classics 562}\24 - Jack the Bellboy.wav
     Pre-gap length  0:00:01.64
     Peak level 89.6 %
     Extraction speed 2.5 X
     Track quality 100.0 %
     Test CRC 912D2BBC
     Copy CRC 912D2BBC
     Accurately ripped (confidence 3)  [9524E05D]  (AR v1)
     Copy OK
All tracks accurately ripped
No errors occurred
End of status report
==== Log checksum 9644ADFF1835694A40AA32FE2B48202241EF51A2F03075D7F4E9A7591268CB96 ====
Содержание индексной карты (.CUE)
REM GENRE Jazz
REM DATE 1991
REM DISCID 5C10B518
REM COMMENT "ExactAudioCopy v1.0b3"
CATALOG 0000000000000
PERFORMER "Lionel Hampton And His Orchestra"
TITLE "1939-1940 {Chronological Classics, 562}"
FILE "01. When Lights Are Low.flac" WAVE
  TRACK 01 AUDIO
    TITLE "When Lights Are Low"
    PERFORMER "Lionel Hampton And His Orchestra"
    PREGAP 00:00:33
    INDEX 01 00:00:00
  TRACK 02 AUDIO
    TITLE "One Sweet Letter From You"
    PERFORMER "Lionel Hampton And His Orchestra"
    INDEX 00 02:13:60
FILE "02. One Sweet Letter From You.flac" WAVE
    INDEX 01 00:00:00
  TRACK 03 AUDIO
    TITLE "Hot Mallets"
    PERFORMER "Lionel Hampton And His Orchestra"
    INDEX 00 03:18:67
FILE "03. Hot Mallets.flac" WAVE
    INDEX 01 00:00:00
  TRACK 04 AUDIO
    TITLE "Early Session Hop"
    PERFORMER "Lionel Hampton And His Orchestra"
    INDEX 00 02:15:32
FILE "04. Early Session Hop.flac" WAVE
    INDEX 01 00:00:00
  TRACK 05 AUDIO
    TITLE "I'm On My Way From You"
    PERFORMER "Lionel Hampton And His Orchestra"
    INDEX 00 02:39:67
FILE "05. I'm On My Way From You.flac" WAVE
    INDEX 01 00:00:00
  TRACK 06 AUDIO
    TITLE "Haven't Named It Yet"
    PERFORMER "Lionel Hampton And His Orchestra"
    INDEX 00 03:06:62
FILE "06. Haven't Named It Yet.flac" WAVE
    INDEX 01 00:00:00
  TRACK 07 AUDIO
    TITLE "The Heebie Jeebies Are Rockin' The Town"
    PERFORMER "Lionel Hampton And His Orchestra"
    INDEX 00 02:56:60
FILE "07. The Heebie Jeebies Are Rockin' The Town.flac" WAVE
    INDEX 01 00:00:00
  TRACK 08 AUDIO
    TITLE "The Munson Street Breakdown"
    PERFORMER "Lionel Hampton And His Orchestra"
    INDEX 00 02:41:60
FILE "08. The Munson Street Breakdown.flac" WAVE
    INDEX 01 00:00:00
  TRACK 09 AUDIO
    TITLE "I've Found A New Baby"
    PERFORMER "Lionel Hampton And His Orchestra"
    INDEX 00 03:16:08
FILE "09. I've Found A New Baby.flac" WAVE
    INDEX 01 00:00:00
  TRACK 10 AUDIO
    TITLE "I Can't Get Started"
    PERFORMER "Lionel Hampton And His Orchestra"
    INDEX 00 02:52:12
FILE "10. I Can't Get Started.flac" WAVE
    INDEX 01 00:00:00
  TRACK 11 AUDIO
    TITLE "Four Or Five Times"
    PERFORMER "Lionel Hampton And His Orchestra"
    INDEX 00 02:53:73
FILE "11. Four Or Five Times.flac" WAVE
    INDEX 01 00:00:00
  TRACK 12 AUDIO
    TITLE "Gin For Christmas"
    PERFORMER "Lionel Hampton And His Orchestra"
    INDEX 00 02:48:37
FILE "12. Gin For Christmas.flac" WAVE
    INDEX 01 00:00:00
  TRACK 13 AUDIO
    TITLE "Dinah"
    PERFORMER "Lionel Hampton And His Orchestra"
    INDEX 00 02:29:60
FILE "13. Dinah.flac" WAVE
    INDEX 01 00:00:00
  TRACK 14 AUDIO
    TITLE "My Buddy"
    PERFORMER "Lionel Hampton And His Orchestra"
    INDEX 00 02:43:12
FILE "14. My Buddy.flac" WAVE
    INDEX 01 00:00:00
  TRACK 15 AUDIO
    TITLE "Singin' The Blues"
    PERFORMER "Lionel Hampton And His Orchestra"
    INDEX 00 02:45:35
FILE "15. Singin' The Blues.flac" WAVE
    INDEX 01 00:00:00
  TRACK 16 AUDIO
    TITLE "Shades Of Jade"
    PERFORMER "Lionel Hampton And His Orchestra"
    INDEX 00 02:53:34
FILE "16. Shades Of Jade.flac" WAVE
    INDEX 01 00:00:00
  TRACK 17 AUDIO
    TITLE "Till Tom Special"
    PERFORMER "Lionel Hampton And His Orchestra"
    INDEX 00 03:25:50
FILE "17. Till Tom Special.flac" WAVE
    INDEX 01 00:00:00
  TRACK 18 AUDIO
    TITLE "Flying Home"
    PERFORMER "Lionel Hampton And His Orchestra"
    INDEX 00 03:22:15
FILE "18. Flying Home.flac" WAVE
    INDEX 01 00:00:00
  TRACK 19 AUDIO
    TITLE "Save It, Pretty Mama"
    PERFORMER "Lionel Hampton And His Orchestra"
    INDEX 00 02:56:52
FILE "19. Save It, Pretty Mama.flac" WAVE
    INDEX 01 00:00:00
  TRACK 20 AUDIO
    TITLE "Tempo And Swing"
    PERFORMER "Lionel Hampton And His Orchestra"
    INDEX 00 03:22:00
FILE "20. Tempo And Swing.flac" WAVE
    INDEX 01 00:00:00
  TRACK 21 AUDIO
    TITLE "House Of Morgan"
    PERFORMER "Lionel Hampton And His Orchestra"
    INDEX 00 03:21:38
FILE "21. House Of Morgan.flac" WAVE
    INDEX 01 00:00:00
  TRACK 22 AUDIO
    TITLE "I'd Be Lost Without You"
    PERFORMER "Lionel Hampton And His Orchestra"
    INDEX 00 03:09:23
FILE "22. I'd Be Lost Without You.flac" WAVE
    INDEX 01 00:00:00
  TRACK 23 AUDIO
    TITLE "Central Avenue Breakdown"
    PERFORMER "Lionel Hampton And His Orchestra"
    INDEX 00 03:00:72
FILE "23. Central Avenue Breakdown.flac" WAVE
    INDEX 01 00:00:00
  TRACK 24 AUDIO
    TITLE "Jack The Bellboy"
    PERFORMER "Lionel Hampton And His Orchestra"
    INDEX 00 03:02:72
FILE "24. Jack The Bellboy.flac" WAVE
    INDEX 01 00:00:00
Download available for power users only.
08:37
381
Нет комментариев. Ваш будет первым!