Поиск

1991 John Hicks - Live At Maybeck Recital Hall, Vol. 7 {Concord Jazz} [CD]

1991 John Hicks - Live At Maybeck Recital Hall, Vol. 7 {Concord Jazz} [CD]
Стили:
Дата записи диска:
1 августа 1990
Место записи:
Maybeck Recital Hall, Berkeley, CA, USA
Издатель (лейбл):
Номер по каталогу:
CCD-4442
Носитель:
CD
Тип рипа:
tracks+.cue
Аудиокодек:
FLAC (*.flac)
Битрейт аудио:
lossless
Время звучания:
00:55:54
Наличие сканов:
только обложка
Страна-производитель диска (релиза):
USA
Релизёр (источник):
M0p94ok

Треклист:

01. Blue In Green (5:46)
02. All Of You (4:58)
03. After The Rain (5:36)
04. Speak Low (4:59)
05. Blues For Maybeck Recital Hall (4:34)
06. Heroes (5:37)
07. Rhythm-A-Ning (3:38)
08. Duke Ellington's Sound Of Love (7:59)
09. Oblivion (3:36)
10. Contemplation (5:30)
11. Straighten Up And Fly Right (3:42)

Лог создания рипа
Exact Audio Copy V1.0 beta 3 from 29. August 2011

EAC extraction logfile from 27. July 2014, 7:26

John Hicks / Live at Maybeck Recital Hall, Volume Seven

Used drive  : TSSTcorpDVD+-RW TS-H653F   Adapter: 4  ID: 0

Read mode               : Secure
Utilize accurate stream : Yes
Defeat audio cache      : Yes
Make use of C2 pointers : No

Read offset correction                      : 6
Overread into Lead-In and Lead-Out          : No
Fill up missing offset samples with silence : Yes
Delete leading and trailing silent blocks   : No
Null samples used in CRC calculations       : Yes
Used interface                              : Native Win32 interface for Win NT & 2000
Gap handling                                : Appended to previous track

Used output format              : User Defined Encoder
Selected bitrate                : 1024 kBit/s
Quality                         : High
Add ID3 tag                     : No
Command line compressor         : E:\Program Files\Exact Audio Copy\Flac\flac.exe
Additional command line options : -8 -V -T "ARTIST=%artist%" -T "TITLE=%title%" -T "ALBUM=%albumtitle%" -T "DATE=%year%" -T "TRACKNUMBER=%tracknr%" -T "GENRE=%genre%" -T "PERFORMER=%albuminterpret%" -T "COMPOSER=%composer%" %haslyrics%--tag-from-file=LYRICS="%lyricsfile%"%haslyrics% -T "ALBUMARTIST=%albumartist%" -T "DISCNUMBER=%cdnumber%" -T "TOTALDISCS=%totalcds%" -T "TOTALTRACKS=%numtracks%" -T "COMMENT=%comment%" %source% -o %dest%

TOC of the extracted CD

     Track |   Start  |  Length  | Start sector | End sector
    ---------------------------------------------------------
        1  |  0:00.00 |  5:45.68 |         0    |    25942
        2  |  5:45.68 |  4:58.05 |     25943    |    48297
        3  | 10:43.73 |  5:36.15 |     48298    |    73512
        4  | 16:20.13 |  4:58.57 |     73513    |    95919
        5  | 21:18.70 |  4:34.18 |     95920    |   116487
        6  | 25:53.13 |  5:37.07 |    116488    |   141769
        7  | 31:30.20 |  3:37.40 |    141770    |   158084
        8  | 35:07.60 |  7:58.40 |    158085    |   193974
        9  | 43:06.25 |  3:35.55 |    193975    |   210154
       10  | 46:42.05 |  5:30.13 |    210155    |   234917
       11  | 52:12.18 |  3:41.60 |    234918    |   251552

Track  1

     Filename E:\Uploads\John Hicks - Live at Maybeck Recital Hall, Volume 7 (1991) [FLAC]\01 - Blue in Green.wav

     Pre-gap length  0:00:02.00

     Peak level 78.6 %
     Extraction speed 4.2 X
     Track quality 99.9 %
     Test CRC 2E235E96
     Copy CRC 2E235E96
     Accurately ripped (confidence 6)  [31325C5F]  (AR v2)
     Copy OK

Track  2

     Filename E:\Uploads\John Hicks - Live at Maybeck Recital Hall, Volume 7 (1991) [FLAC]\02 - All of You.wav

     Peak level 72.5 %
     Extraction speed 5.4 X
     Track quality 100.0 %
     Test CRC 09F69EC5
     Copy CRC 09F69EC5
     Accurately ripped (confidence 6)  [2260CDB0]  (AR v2)
     Copy OK

Track  3

     Filename E:\Uploads\John Hicks - Live at Maybeck Recital Hall, Volume 7 (1991) [FLAC]\03 - After the Rain.wav

     Peak level 70.7 %
     Extraction speed 6.0 X
     Track quality 100.0 %
     Test CRC 8CA61CAD
     Copy CRC 8CA61CAD
     Accurately ripped (confidence 6)  [0AA02BD2]  (AR v2)
     Copy OK

Track  4

     Filename E:\Uploads\John Hicks - Live at Maybeck Recital Hall, Volume 7 (1991) [FLAC]\04 - Speak Low.wav

     Peak level 72.8 %
     Extraction speed 6.5 X
     Track quality 100.0 %
     Test CRC E4ED210C
     Copy CRC E4ED210C
     Accurately ripped (confidence 6)  [7E9976F4]  (AR v2)
     Copy OK

Track  5

     Filename E:\Uploads\John Hicks - Live at Maybeck Recital Hall, Volume 7 (1991) [FLAC]\05 - Blues for Maybeck Recital Hall.wav

     Peak level 81.7 %
     Extraction speed 5.6 X
     Track quality 99.9 %
     Test CRC 7F0276D0
     Copy CRC 7F0276D0
     Accurately ripped (confidence 6)  [1BFE230B]  (AR v2)
     Copy OK

Track  6

     Filename E:\Uploads\John Hicks - Live at Maybeck Recital Hall, Volume 7 (1991) [FLAC]\06 - Heroes.wav

     Peak level 67.3 %
     Extraction speed 7.4 X
     Track quality 100.0 %
     Test CRC 2FBDAFC7
     Copy CRC 2FBDAFC7
     Accurately ripped (confidence 6)  [0BFC35B8]  (AR v2)
     Copy OK

Track  7

     Filename E:\Uploads\John Hicks - Live at Maybeck Recital Hall, Volume 7 (1991) [FLAC]\07 - Rhythm-A-Ning.wav

     Peak level 61.6 %
     Extraction speed 7.4 X
     Track quality 100.0 %
     Test CRC 20E0BECE
     Copy CRC 20E0BECE
     Accurately ripped (confidence 6)  [8CA6A370]  (AR v2)
     Copy OK

Track  8

     Filename E:\Uploads\John Hicks - Live at Maybeck Recital Hall, Volume 7 (1991) [FLAC]\08 - Duke Ellington's Sound of Love.wav

     Peak level 92.2 %
     Extraction speed 8.5 X
     Track quality 100.0 %
     Test CRC 4C521356
     Copy CRC 4C521356
     Accurately ripped (confidence 6)  [2706B341]  (AR v2)
     Copy OK

Track  9

     Filename E:\Uploads\John Hicks - Live at Maybeck Recital Hall, Volume 7 (1991) [FLAC]\09 - Oblivion.wav

     Peak level 63.5 %
     Extraction speed 8.2 X
     Track quality 100.0 %
     Test CRC 514CE066
     Copy CRC 514CE066
     Accurately ripped (confidence 6)  [1630992A]  (AR v2)
     Copy OK

Track 10

     Filename E:\Uploads\John Hicks - Live at Maybeck Recital Hall, Volume 7 (1991) [FLAC]\10 - Contemplation.wav

     Peak level 86.6 %
     Extraction speed 8.9 X
     Track quality 100.0 %
     Test CRC 9D55EFC0
     Copy CRC 9D55EFC0
     Accurately ripped (confidence 6)  [A051D237]  (AR v2)
     Copy OK

Track 11

     Filename E:\Uploads\John Hicks - Live at Maybeck Recital Hall, Volume 7 (1991) [FLAC]\11 - Straighten Up and Fly Right.wav

     Peak level 94.5 %
     Extraction speed 6.8 X
     Track quality 99.9 %
     Test CRC B289D041
     Copy CRC B289D041
     Accurately ripped (confidence 6)  [C775CCD7]  (AR v2)
     Copy OK

All tracks accurately ripped

No errors occurred

End of status report

---- CUETools DB Plugin V2.1.3

[CTDB TOCID: LSDeVyX87pv9UKmHH8kQpVN1vDM-] found, Submit result: LSDeVyX87pv9UKmHH8kQpVN1vDM- has been confirmed
[5444334a] (3/3) Accurately ripped

==== Log checksum 43F88D989357FF66A02648F96320E13C64943F5A27B295E3F987CF8D49577324 ====
Приватный:
Нет (DHT включён)
Размер:
197.64 Мб (207,237,820 байт) » файлов: 18
Участники:
3 раздают, 0 качают (3 участников всего)
Внешние участники:
--- [ Обновить ]
No seeders - write personal message to M0p94ok. Нет сидеров - пишите в личку M0p94ok.
10:58
40
13:34