Поиск

1990 Hal Galper - Live at Maybeck Recital Hall, Vol. 6 {Concord Jazz} [CD]

1990 Hal Galper - Live at Maybeck Recital Hall, Vol. 6 {Concord Jazz} [CD]
Стили:
Дата записи диска:
1 июля 1990
Место записи:
Maybeck Recital Hall, Berkeley, CA, USA
Издатель (лейбл):
Номер по каталогу:
CCD-4438
Носитель:
CD
Тип рипа:
tracks+.cue
Аудиокодек:
FLAC (*.flac)
Битрейт аудио:
lossless
Время звучания:
00:56:55
Наличие сканов:
только обложка
Страна-производитель диска (релиза):
USA
Релизёр (источник):
M0p94ok
Доп. инфо:

Сольный концерт одного из незамеченных мастеров джазового фортепиано. Будь то погружение в канон пост-бопа с "Whisper Not" Бенни Голсона, "Bemsha Swing" Телониуса Монка или "Airegin" Сонни Роллинза, или прослушивание редко слышимых записей из сборника песен, таких как "It Never Was You" Курта Вейля. или «Прикосновение твоих губ» Рэя Ноубла, Гальпер выполняет каждую задачу, вооружившись тонким чувством ритма и кладезем гармонических знаний. Он насквозь джазовый пианист, которому не хватает сверхточной техники, которую классическая подготовка даровала некоторым из его коллег-музыкантов. Но он может дать волю своей собственной вспышке, когда ему нужно - засвидетельствуйте его короткое и сладкое тур де силы "All God Chillun Got Rhythm". Чтобы лучше понять надежный внутренний метроном Гальпера, посмотрите «Поцелуй, чтобы воплотить мечту». Такое твердое время - результат игры с бесчисленными ритм-секциями на бесчисленных эстрадах. Даже играя соло, Гальпер слышит оркестр.

Лог создания рипа
Exact Audio Copy V1.3 from 2. September 2016

EAC extraction logfile from 20. June 2017, 21:47

Hal Galper / Live at Maybeck Recital Hall, Volume Six

Used drive  : ATAPI   iHAS224   B   Adapter: 1  ID: 0

Read mode               : Secure
Utilize accurate stream : Yes
Defeat audio cache      : Yes
Make use of C2 pointers : No

Read offset correction                      : 6
Overread into Lead-In and Lead-Out          : No
Fill up missing offset samples with silence : Yes
Delete leading and trailing silent blocks   : No
Null samples used in CRC calculations       : Yes
Used interface                              : Native Win32 interface for Win NT & 2000
Gap handling                                : Appended to previous track

Used output format              : User Defined Encoder
Selected bitrate                : 1024 kBit/s
Quality                         : High
Add ID3 tag                     : No
Command line compressor         : C:\Program Files (x86)\Exact Audio Copy\Flac\flac.exe
Additional command line options : -8 -e -p -V -T "ARTIST=%artist%" -T "TITLE=%title%" -T "ALBUM=%albumtitle%" -T "DATE=%year%" -T "TRACKNUMBER=%tracknr%" -T "GENRE=%genre%" -T "PERFORMER=%albuminterpret%" -T "COMPOSER=%composer%" %haslyrics%--tag-from-file=LYRICS="%lyricsfile%"%haslyrics% -T "ALBUMARTIST=%albumartist%" -T "DISCNUMBER=%cdnumber%" -T "TOTALDISCS=%totalcds%" -T "TOTALTRACKS=%numtracks%" -T "COMMENT=%comment%" %source% -o %dest%

TOC of the extracted CD

     Track |   Start  |  Length  | Start sector | End sector
    ---------------------------------------------------------
        1  |  0:00.00 |  0:16.25 |         0    |     1224
        2  |  0:16.25 |  7:07.50 |      1225    |    33299
        3  |  7:24.00 |  7:07.50 |     33300    |    65374
        4  | 14:31.50 |  3:42.57 |     65375    |    82081
        5  | 18:14.32 |  5:57.13 |     82082    |   108869
        6  | 24:11.45 |  7:25.30 |    108870    |   142274
        7  | 31:37.00 |  7:49.07 |    142275    |   177456
        8  | 39:26.07 |  5:53.25 |    177457    |   203956
        9  | 45:19.32 |  7:19.50 |    203957    |   236931
       10  | 52:39.07 |  4:20.58 |    236932    |   256489

Track  1

     Filename G:\Audio\Drive1\01 - [Spoken Introduction].wav

     Pre-gap length  0:00:02.00

     Peak level 93.2 %
     Extraction speed 1.1 X
     Track quality 100.0 %
     Test CRC 083A2F26
     Copy CRC 083A2F26
     Accurately ripped (confidence 2)  [B8308BFD]  (AR v2)
     Copy OK

Track  2

     Filename G:\Audio\Drive1\02 - Whisper Not.wav

     Peak level 99.8 %
     Extraction speed 4.3 X
     Track quality 100.0 %
     Test CRC 8A33FAE1
     Copy CRC 8A33FAE1
     Accurately ripped (confidence 3)  [126730B9]  (AR v2)
     Copy OK

Track  3

     Filename G:\Audio\Drive1\03 - It Never Was You.wav

     Peak level 100.0 %
     Extraction speed 4.9 X
     Track quality 100.0 %
     Test CRC 1D4A41F2
     Copy CRC 1D4A41F2
     Accurately ripped (confidence 3)  [608E61A4]  (AR v2)
     Copy OK

Track  4

     Filename G:\Audio\Drive1\04 - All God's Chillun Got Rhythm.wav

     Peak level 100.0 %
     Extraction speed 3.9 X
     Track quality 99.9 %
     Test CRC E630EA1C
     Copy CRC E630EA1C
     Accurately ripped (confidence 3)  [D19BAF07]  (AR v2)
     Copy OK

Track  5

     Filename G:\Audio\Drive1\05 - A Kiss to Build a Dream On.wav

     Peak level 100.0 %
     Extraction speed 5.6 X
     Track quality 100.0 %
     Test CRC 39BD9178
     Copy CRC 39BD9178
     Accurately ripped (confidence 3)  [369869F0]  (AR v2)
     Copy OK

Track  6

     Filename G:\Audio\Drive1\06 - Willow Weep for Me.wav

     Peak level 100.0 %
     Extraction speed 5.5 X
     Track quality 99.9 %
     Test CRC 36379B4C
     Copy CRC 36379B4C
     Accurately ripped (confidence 3)  [3CD8440B]  (AR v2)
     Copy OK

Track  7

     Filename G:\Audio\Drive1\07 - The Touch of Your Lips.wav

     Peak level 100.0 %
     Extraction speed 5.8 X
     Track quality 99.9 %
     Test CRC 7EDBF049
     Copy CRC 7EDBF049
     Accurately ripped (confidence 3)  [79AD48E9]  (AR v2)
     Copy OK

Track  8

     Filename G:\Audio\Drive1\08 - Bemsha Swing.wav

     Peak level 100.0 %
     Extraction speed 6.8 X
     Track quality 100.0 %
     Test CRC EE9C53CE
     Copy CRC EE9C53CE
     Accurately ripped (confidence 3)  [AD67FBE9]  (AR v2)
     Copy OK

Track  9

     Filename G:\Audio\Drive1\09 - Detour Ahead.wav

     Peak level 100.0 %
     Extraction speed 7.2 X
     Track quality 100.0 %
     Test CRC F9A42063
     Copy CRC F9A42063
     Accurately ripped (confidence 3)  [D0E2820F]  (AR v2)
     Copy OK

Track 10

     Filename G:\Audio\Drive1\10 - Airegin.wav

     Peak level 99.5 %
     Extraction speed 5.9 X
     Track quality 99.9 %
     Test CRC E4F31B64
     Copy CRC E4F31B64
     Accurately ripped (confidence 3)  [BAC9C788]  (AR v2)
     Copy OK

All tracks accurately ripped

No errors occurred

End of status report

---- CUETools DB Plugin V2.1.6

[CTDB TOCID: lXMrl8Wwd_s8WiuPx4MG6zF3r98-] found
Submit result: lXMrl8Wwd_s8WiuPx4MG6zF3r98- has been confirmed
Track | CTDB Status
  1   | (1/1) Accurately ripped
  2   | (1/1) Accurately ripped
  3   | (1/1) Accurately ripped
  4   | (1/1) Accurately ripped
  5   | (1/1) Accurately ripped
  6   | (1/1) Accurately ripped
  7   | (1/1) Accurately ripped
  8   | (1/1) Accurately ripped
  9   | (1/1) Accurately ripped
 10   | (1/1) Accurately ripped

==== Log checksum D2A4A7809F1E4D9F982B4275C189785EC3EEDEF21FE7EBA601D6EA8A749313E6 ====
No seeders - write personal message to M0p94ok. Any questions - support@pro-jazz.com.
Нет сидеров - пишите в личку M0p94ok. Есть вопросы - support@pro-jazz.com
10:01
86
10:02