Поиск

1991 Eric Marienthal - Oasis {GRP GRD-9655} [CD]

1991 Eric Marienthal - Oasis {GRP GRD-9655} [CD]
Издатель (лейбл):
Лог создания рипа
Exact Audio Copy V0.99 prebeta 4 from 23. January 2008
EAC extraction logfile from 22. August 2008, 19:50
Eric Marienthal / Oasis
Used drive  : PLEXTOR DVDR   PX-810SA   Adapter: 5  ID: 1
Read mode               : Secure
Utilize accurate stream : Yes
Defeat audio cache      : Yes
Make use of C2 pointers : No
Read offset correction                      : 48
Overread into Lead-In and Lead-Out          : No
Fill up missing offset samples with silence : Yes
Delete leading and trailing silent blocks   : No
Null samples used in CRC calculations       : Yes
Used interface                              : Installed external ASPI interface
Used output format : Internal WAV Routines
Sample format      : 44.100 Hz; 16 Bit; Stereo
TOC of the extracted CD
     Track |   Start  |  Length  | Start sector | End sector
    ---------------------------------------------------------
        1  |  0:00.00 |  4:25.45 |         0    |    19919
        2  |  4:25.45 |  4:56.05 |     19920    |    42124
        3  |  9:21.50 |  5:07.70 |     42125    |    65219
        4  | 14:29.45 |  4:46.60 |     65220    |    86729
        5  | 19:16.30 |  4:57.65 |     86730    |   109069
        6  | 24:14.20 |  6:41.45 |    109070    |   139189
        7  | 30:55.65 |  4:55.35 |    139190    |   161349
        8  | 35:51.25 |  5:06.18 |    161350    |   184317
        9  | 40:57.43 |  4:45.52 |    184318    |   205744
       10  | 45:43.20 |  4:03.20 |    205745    |   223989
Range status and errors
Selected range
     Filename K:\HQShare\Eric Marienthal\Eric Marienthal - Oasis.wav
     Peak level 100.0 %
     Range quality 100.0 %
     Copy CRC E75ABDFC
     Copy OK
No errors occurred
End of status report
No seeders - write personal message to M0p94ok. Any questions - support@pro-jazz.com.
Нет сидеров - пишите в личку M0p94ok. Есть вопросы - support@pro-jazz.com
15:58
225
Нет комментариев. Ваш будет первым!