Поиск

1991 Duke Ellington And His Orchestra - 1929-1930 {The Chronological Classics 577} [CD]

1991 Duke Ellington And His Orchestra - 1929-1930 {The Chronological Classics 577} [CD]
Стили:
Издатель (лейбл):
Номер по каталогу:
CC577
Носитель:
CD
Тип рипа:
image+.cue
Аудиокодек:
FLAC (*.flac)
Битрейт аудио:
lossless
Наличие сканов:
да

01. Jungle Jamboree (3:04)
02. Snake Hip Dance (2:50)
03. Doin' the Voom Voom (2:49)
04. Flaming Youth (2:24)
05. Saturday Night Function (3:05)
06. Jolly Wog (3:04)
07. Jazz Convulsions (2:51)
08. Mississippi (3:27)
09. The Duke Steps Out (3:19)
10. Haunted Nights (3:18)
11. Swanee Shuffles (3:21)
12. Six or Seven Times (3:05)
13. Goin' Nuts (2:35)
14. Oklahoma Stomp (2:50)
15. Breakfast Dance (3:03)
16. Jazz Lips (3:15)
17. March of the Hoodlums (2:55)
18. Lazy Duke (3:10)
19. Blues of the Vagabond (3:17)
20. Syncopated Shuffle (2:47)
21. Sweet Mama (3:10)
22. Wall Street Wail (3:00)
23. Cincinnati Daddy (3:19)
24. St. James Infirmary (3:00)

Лог создания рипа
Exact Audio Copy V0.99 prebeta 4 from 23. January 2008

EAC extraction logfile from 17. April 2008, 8:47

Duke Ellington And His Orchestra / 1929 - 1930

Used drive  : ATAPI   DVD A  DH20A3H   Adapter: 1  ID: 1

Read mode               : Secure
Utilize accurate stream : Yes
Defeat audio cache      : Yes
Make use of C2 pointers : No

Read offset correction                      : 6
Overread into Lead-In and Lead-Out          : No
Fill up missing offset samples with silence : Yes
Delete leading and trailing silent blocks   : No
Null samples used in CRC calculations       : Yes
Used interface                              : Installed external ASPI interface

Used output format              : User Defined Encoder
Selected bitrate                : 768 kBit/s
Quality                         : High
Add ID3 tag                     : No
Command line compressor         : C:\Program Files\Exact Audio Copy\flac.exe
Additional command line options : -V -8 -T "artist=%a" -T "title=%t" -T "album=%g" -T "date=%y" -T "tracknumber=%n" -T "genre=%m" %s

TOC of the extracted CD

     Track |   Start  |  Length  | Start sector | End sector
    ---------------------------------------------------------
        1  |  0:00.33 |  3:04.05 |        33    |    13837
        2  |  3:04.38 |  2:49.45 |     13838    |    26557
        3  |  5:54.08 |  2:48.67 |     26558    |    39224
        4  |  8:43.00 |  2:23.43 |     39225    |    49992
        5  | 11:06.43 |  3:04.70 |     49993    |    63862
        6  | 14:11.38 |  3:04.17 |     63863    |    77679
        7  | 17:15.55 |  2:51.33 |     77680    |    90537
        8  | 20:07.13 |  3:26.50 |     90538    |   106037
        9  | 23:33.63 |  3:19.12 |    106038    |   120974
       10  | 26:53.00 |  3:17.50 |    120975    |   135799
       11  | 30:10.50 |  3:20.48 |    135800    |   150847
       12  | 33:31.23 |  3:04.72 |    150848    |   164719
       13  | 36:36.20 |  2:35.18 |    164720    |   176362
       14  | 39:11.38 |  2:50.07 |    176363    |   189119
       15  | 42:01.45 |  3:03.33 |    189120    |   202877
       16  | 45:05.03 |  3:14.50 |    202878    |   217477
       17  | 48:19.53 |  2:55.35 |    217478    |   230637
       18  | 51:15.13 |  3:09.67 |    230638    |   244879
       19  | 54:25.05 |  3:16.38 |    244880    |   259617
       20  | 57:41.43 |  2:47.12 |    259618    |   272154
       21  | 60:28.55 |  3:10.25 |    272155    |   286429
       22  | 63:39.05 |  3:00.33 |    286430    |   299962
       23  | 66:39.38 |  3:18.70 |    299963    |   314882
       24  | 69:58.33 |  3:00.10 |    314883    |   328392

Range status and errors

Selected range

     Filename D:\WinRar\Duke Ellington - 1929-1930 (Chronogical Classics) [FLAC Full Scans]\Duke Ellington And His Orchestra - 1929 - 1930.wav

     Peak level 90.0 %
     Range quality 100.0 %
     Test CRC DB0EBD24
     Copy CRC DB0EBD24
     Copy OK

No errors occurred

AccurateRip summary

Track  1  not present in database
Track  2  not present in database
Track  3  not present in database
Track  4  not present in database
Track  5  not present in database
Track  6  not present in database
Track  7  not present in database
Track  8  not present in database
Track  9  not present in database
Track 10  not present in database
Track 11  not present in database
Track 12  not present in database
Track 13  not present in database
Track 14  not present in database
Track 15  not present in database
Track 16  not present in database
Track 17  not present in database
Track 18  not present in database
Track 19  not present in database
Track 20  not present in database
Track 21  not present in database
Track 22  not present in database
Track 23  not present in database
Track 24  not present in database

None of the tracks are present in the AccurateRip database

End of status report
Приватный:
Да (DHT отключён)
Размер:
242.96 Мб (254,760,065 байт) » файлов: 14
Участники:
5 раздают, 0 качают (5 участников всего)
Внешние участники:
--- [ Обновить ]
23:15
661
Нет комментариев. Ваш будет первым!