Вы используете незарегистрированную версию компонента "Вкладки"!

Поиск

1990 Teddy Wilson And His Orchestra - 1937 {The Chronological Classics 531} [CD]

1990 Teddy Wilson And His Orchestra - 1937 {The Chronological Classics 531} [CD]
Стили:
Дата записи диска:
31 марта 1937 - 29 августа 1937
Дата издания диска:
1990
Издатель (лейбл):
Номер по каталогу:
531
Носитель:
CD
Тип рипа:
tracks
Аудиокодек:
FLAC (*.flac)
Битрейт аудио:
lossless
Время звучания:
01:12:12
Наличие сканов:
буклет pdf
Страна-производитель диска (релиза):
France
Релизёр (источник):
M0p94ok
Лог создания рипа
Exact Audio Copy V1.0 beta 2 from 29. April 2011
EAC extraction logfile from 2. August 2011, 23:31
Teddy Wilson And His Orchestra / 1937
Used drive  : Optiarc DVD RW AD-7170A   Adapter: 1  ID: 0
Read mode               : Secure
Utilize accurate stream : Yes
Defeat audio cache      : Yes
Make use of C2 pointers : No
Read offset correction                      : 48
Overread into Lead-In and Lead-Out          : No
Fill up missing offset samples with silence : Yes
Delete leading and trailing silent blocks   : No
Null samples used in CRC calculations       : Yes
Used interface                              : Native Win32 interface for Win NT & 2000
Gap handling                                : Appended to previous track
Used output format              : User Defined Encoder
Selected bitrate                : 1024 kBit/s
Quality                         : High
Add ID3 tag                     : No
Command line compressor         : C:\Program Files (x86)\Exact Audio Copy\Flac\flac.exe
Additional command line options : -8 -V -T "ARTIST=%artist%" -T "TITLE=%title%" -T "ALBUM=%albumtitle%" -T "DATE=%year%" -T "TRACKNUMBER=%tracknr%" -T "GENRE=%genre%" -T "PERFORMER=%albuminterpret%" -T "COMPOSER=%composer%" %haslyrics%--tag-from-file=LYRICS
TOC of the extracted CD
     Track |   Start  |  Length  | Start sector | End sector
    ---------------------------------------------------------
        1  |  0:00.33 |  2:33.05 |        33    |    11512
        2  |  2:33.38 |  3:05.65 |     11513    |    25452
        3  |  5:39.28 |  2:38.30 |     25453    |    37332
        4  |  8:17.58 |  3:15.67 |     37333    |    52024
        5  | 11:33.50 |  3:01.33 |     52025    |    65632
        6  | 14:35.08 |  3:22.07 |     65633    |    80789
        7  | 17:57.15 |  2:44.70 |     80790    |    93159
        8  | 20:42.10 |  3:08.50 |     93160    |   107309
        9  | 23:50.60 |  3:18.33 |    107310    |   122192
       10  | 27:09.18 |  3:09.32 |    122193    |   136399
       11  | 30:18.50 |  3:09.73 |    136400    |   150647
       12  | 33:28.48 |  3:02.55 |    150648    |   164352
       13  | 36:31.28 |  3:03.30 |    164353    |   178107
       14  | 39:34.58 |  3:04.27 |    178108    |   191934
       15  | 42:39.10 |  2:43.10 |    191935    |   204169
       16  | 45:22.20 |  3:11.13 |    204170    |   218507
       17  | 48:33.33 |  2:47.30 |    218508    |   231062
       18  | 51:20.63 |  3:15.57 |    231063    |   245744
       19  | 54:36.45 |  2:46.40 |    245745    |   258234
       20  | 57:23.10 |  2:51.38 |    258235    |   271097
       21  | 60:14.48 |  2:56.32 |    271098    |   284329
       22  | 63:11.05 |  3:15.58 |    284330    |   299012
       23  | 66:26.63 |  2:54.62 |    299013    |   312124
       24  | 69:21.50 |  3:03.28 |    312125    |   325877
Track  1
     Filename E:\Vuze_BitTorrent_DLs\EAC Rips\Teddy Wilson And His Orchestra - 1937 (1990) [FLAC] {Chronological Classics 511}\01 - How Could You.wav
     Pre-gap length  0:00:02.44
     Peak level 88.9 %
     Extraction speed 3.3 X
     Track quality 99.9 %
     Test CRC 25A3F811
     Copy CRC 25A3F811
     Copy OK
Track  2
     Filename E:\Vuze_BitTorrent_DLs\EAC Rips\Teddy Wilson And His Orchestra - 1937 (1990) [FLAC] {Chronological Classics 511}\02 - Moanin' Low.wav
     Pre-gap length  0:00:02.70
     Peak level 76.1 %
     Extraction speed 4.9 X
     Track quality 100.0 %
     Test CRC 01DD08B9
     Copy CRC 01DD08B9
     Copy OK
Track  3
     Filename E:\Vuze_BitTorrent_DLs\EAC Rips\Teddy Wilson And His Orchestra - 1937 (1990) [FLAC] {Chronological Classics 511}\03 - Fine And Dandy.wav
     Pre-gap length  0:00:02.17
     Peak level 76.2 %
     Extraction speed 5.0 X
     Track quality 100.0 %
     Test CRC DEF0F580
     Copy CRC DEF0F580
     Copy OK
Track  4
     Filename E:\Vuze_BitTorrent_DLs\EAC Rips\Teddy Wilson And His Orchestra - 1937 (1990) [FLAC] {Chronological Classics 511}\04 - There's A Lull In My Life.wav
     Pre-gap length  0:00:01.66
     Peak level 80.1 %
     Extraction speed 4.3 X
     Track quality 99.9 %
     Test CRC 6AE6D49A
     Copy CRC 6AE6D49A
     Copy OK
Track  5
     Filename E:\Vuze_BitTorrent_DLs\EAC Rips\Teddy Wilson And His Orchestra - 1937 (1990) [FLAC] {Chronological Classics 511}\05 - It's Swell Of You.wav
     Pre-gap length  0:00:03.02
     Peak level 77.5 %
     Extraction speed 5.7 X
     Track quality 100.0 %
     Test CRC 2B74B7A0
     Copy CRC 2B74B7A0
     Copy OK
Track  6
     Filename E:\Vuze_BitTorrent_DLs\EAC Rips\Teddy Wilson And His Orchestra - 1937 (1990) [FLAC] {Chronological Classics 511}\06 - How Am I To Know.wav
     Pre-gap length  0:00:02.17
     Peak level 94.7 %
     Extraction speed 6.0 X
     Track quality 100.0 %
     Test CRC 0AB1C979
     Copy CRC 0AB1C979
     Copy OK
Track  7
     Filename E:\Vuze_BitTorrent_DLs\EAC Rips\Teddy Wilson And His Orchestra - 1937 (1990) [FLAC] {Chronological Classics 511}\07 - I'm Coming, Virginia.wav
     Pre-gap length  0:00:02.82
     Peak level 84.2 %
     Extraction speed 5.9 X
     Track quality 100.0 %
     Test CRC EC69F066
     Copy CRC EC69F066
     Copy OK
Track  8
     Filename E:\Vuze_BitTorrent_DLs\EAC Rips\Teddy Wilson And His Orchestra - 1937 (1990) [FLAC] {Chronological Classics 511}\08 - Sun Showers.wav
     Pre-gap length  0:00:02.29
     Peak level 87.8 %
     Extraction speed 6.5 X
     Track quality 100.0 %
     Test CRC 275B3C7E
     Copy CRC 275B3C7E
     Copy OK
Track  9
     Filename E:\Vuze_BitTorrent_DLs\EAC Rips\Teddy Wilson And His Orchestra - 1937 (1990) [FLAC] {Chronological Classics 511}\09 - Yours And Mine.wav
     Pre-gap length  0:00:02.53
     Peak level 83.0 %
     Extraction speed 6.8 X
     Track quality 100.0 %
     Test CRC 9CD2C9BA
     Copy CRC 9CD2C9BA
     Copy OK
Track 10
     Filename E:\Vuze_BitTorrent_DLs\EAC Rips\Teddy Wilson And His Orchestra - 1937 (1990) [FLAC] {Chronological Classics 511}\10 - I'll Get By.wav
     Pre-gap length  0:00:01.80
     Peak level 80.3 %
     Extraction speed 7.0 X
     Track quality 100.0 %
     Test CRC 514EA8C1
     Copy CRC 514EA8C1
     Copy OK
Track 11
     Filename E:\Vuze_BitTorrent_DLs\EAC Rips\Teddy Wilson And His Orchestra - 1937 (1990) [FLAC] {Chronological Classics 511}\11 - Mean To Me.wav
     Pre-gap length  0:00:02.62
     Peak level 85.2 %
     Extraction speed 7.2 X
     Track quality 100.0 %
     Test CRC 8E7FB958
     Copy CRC 8E7FB958
     Copy OK
Track 12
     Filename E:\Vuze_BitTorrent_DLs\EAC Rips\Teddy Wilson And His Orchestra - 1937 (1990) [FLAC] {Chronological Classics 511}\12 - Foolin' Myself.wav
     Pre-gap length  0:00:03.10
     Peak level 82.9 %
     Extraction speed 7.0 X
     Track quality 100.0 %
     Test CRC FDE21A3B
     Copy CRC FDE21A3B
     Copy OK
Track 13
     Filename E:\Vuze_BitTorrent_DLs\EAC Rips\Teddy Wilson And His Orchestra - 1937 (1990) [FLAC] {Chronological Classics 511}\13 - Easy Living.wav
     Pre-gap length  0:00:02.53
     Peak level 98.6 %
     Extraction speed 7.6 X
     Track quality 100.0 %
     Test CRC 2E41D78D
     Copy CRC 2E41D78D
     Copy OK
Track 14
     Filename E:\Vuze_BitTorrent_DLs\EAC Rips\Teddy Wilson And His Orchestra - 1937 (1990) [FLAC] {Chronological Classics 511}\14 - I'll Never Be The Same.wav
     Pre-gap length  0:00:02.20
     Peak level 94.3 %
     Extraction speed 7.7 X
     Track quality 100.0 %
     Test CRC 2D72F901
     Copy CRC 2D72F901
     Copy OK
Track 15
     Filename E:\Vuze_BitTorrent_DLs\EAC Rips\Teddy Wilson And His Orchestra - 1937 (1990) [FLAC] {Chronological Classics 511}\15 - I've Found A New Baby.wav
     Pre-gap length  0:00:01.26
     Peak level 96.3 %
     Extraction speed 7.8 X
     Track quality 100.0 %
     Test CRC 4A534745
     Copy CRC 4A534745
     Copy OK
Track 16
     Filename E:\Vuze_BitTorrent_DLs\EAC Rips\Teddy Wilson And His Orchestra - 1937 (1990) [FLAC] {Chronological Classics 511}\16 - You're My Desire.wav
     Pre-gap length  0:00:02.00
     Peak level 71.0 %
     Extraction speed 8.0 X
     Track quality 100.0 %
     Test CRC 0FF91626
     Copy CRC 0FF91626
     Copy OK
Track 17
     Filename E:\Vuze_BitTorrent_DLs\EAC Rips\Teddy Wilson And His Orchestra - 1937 (1990) [FLAC] {Chronological Classics 511}\17 - Remember Me.wav
     Pre-gap length  0:00:01.66
     Peak level 94.5 %
     Extraction speed 8.1 X
     Track quality 100.0 %
     Test CRC C7C6A2EC
     Copy CRC C7C6A2EC
     Copy OK
Track 18
     Filename E:\Vuze_BitTorrent_DLs\EAC Rips\Teddy Wilson And His Orchestra - 1937 (1990) [FLAC] {Chronological Classics 511}\18 - The Hour Of Parting.wav
     Pre-gap length  0:00:01.90
     Peak level 97.1 %
     Extraction speed 8.4 X
     Track quality 100.0 %
     Test CRC D69B9EF0
     Copy CRC D69B9EF0
     Copy OK
Track 19
     Filename E:\Vuze_BitTorrent_DLs\EAC Rips\Teddy Wilson And His Orchestra - 1937 (1990) [FLAC] {Chronological Classics 511}\19 - Coquette.wav
     Pre-gap length  0:00:01.73
     Peak level 80.4 %
     Extraction speed 8.3 X
     Track quality 100.0 %
     Test CRC 230EA2A0
     Copy CRC 230EA2A0
     Copy OK
Track 20
     Filename E:\Vuze_BitTorrent_DLs\EAC Rips\Teddy Wilson And His Orchestra - 1937 (1990) [FLAC] {Chronological Classics 511}\20 - Big Apple.wav
     Pre-gap length  0:00:01.86
     Peak level 81.2 %
     Extraction speed 8.6 X
     Track quality 100.0 %
     Test CRC 173981EF
     Copy CRC 173981EF
     Copy OK
Track 21
     Filename E:\Vuze_BitTorrent_DLs\EAC Rips\Teddy Wilson And His Orchestra - 1937 (1990) [FLAC] {Chronological Classics 511}\21 - You Can't Stop Me From Dreamin'.wav
     Pre-gap length  0:00:02.26
     Peak level 95.2 %
     Extraction speed 8.9 X
     Track quality 100.0 %
     Test CRC 172FF06C
     Copy CRC 172FF06C
     Copy OK
Track 22
     Filename E:\Vuze_BitTorrent_DLs\EAC Rips\Teddy Wilson And His Orchestra - 1937 (1990) [FLAC] {Chronological Classics 511}\22 - If I Had You.wav
     Pre-gap length  0:00:01.53
     Peak level 70.3 %
     Extraction speed 9.0 X
     Track quality 100.0 %
     Test CRC C8A64F50
     Copy CRC C8A64F50
     Copy OK
Track 23
     Filename E:\Vuze_BitTorrent_DLs\EAC Rips\Teddy Wilson And His Orchestra - 1937 (1990) [FLAC] {Chronological Classics 511}\23 - You Brought A New Kind Of Love To Me.wav
     Pre-gap length  0:00:02.04
     Peak level 95.5 %
     Extraction speed 8.7 X
     Track quality 100.0 %
     Test CRC 287E44E8
     Copy CRC 287E44E8
     Copy OK
Track 24
     Filename E:\Vuze_BitTorrent_DLs\EAC Rips\Teddy Wilson And His Orchestra - 1937 (1990) [FLAC] {Chronological Classics 511}\24 - Ain't Misbehavin'.wav
     Pre-gap length  0:00:01.76
     Peak level 72.6 %
     Extraction speed 8.6 X
     Track quality 100.0 %
     Test CRC 928A8E3A
     Copy CRC 928A8E3A
     Copy OK
No errors occurred
End of status report
==== Log checksum 3AE0AB9F53900A06BC45D45E9A92014EB9DEE64696B56B5E8C3F8B339D50D11F ====
Содержание индексной карты (.CUE)
REM GENRE Jazz
REM DATE 1990
REM DISCID 6510F918
REM COMMENT "ExactAudioCopy v1.0b2"
PERFORMER "Teddy Wilson And His Orchestra"
TITLE "1937 {Chronological Classics, 531}"
FILE "01. How Could You.flac" WAVE
  TRACK 01 AUDIO
    PREGAP 00:00:33
    INDEX 01 00:00:00
  TRACK 02 AUDIO
    INDEX 00 02:30:27
FILE "02. Moanin' Low.flac" WAVE
    INDEX 01 00:00:00
  TRACK 03 AUDIO
    INDEX 00 03:03:52
FILE "03. Fine And Dandy.flac" WAVE
    INDEX 01 00:00:00
  TRACK 04 AUDIO
    INDEX 00 02:36:55
FILE "04. There's A Lull In My Life.flac" WAVE
    INDEX 01 00:00:00
  TRACK 05 AUDIO
    INDEX 00 03:12:65
FILE "05. It's Swell Of You.flac" WAVE
    INDEX 01 00:00:00
  TRACK 06 AUDIO
    INDEX 00 02:59:20
FILE "06. How Am I To Know.flac" WAVE
    INDEX 01 00:00:00
  TRACK 07 AUDIO
    INDEX 00 03:19:20
FILE "07. I'm Coming, Virginia.flac" WAVE
    INDEX 01 00:00:00
  TRACK 08 AUDIO
    INDEX 00 02:42:48
FILE "08. Sun Showers.flac" WAVE
    INDEX 01 00:00:00
  TRACK 09 AUDIO
    INDEX 00 03:06:10
FILE "09. Yours And Mine.flac" WAVE
    INDEX 01 00:00:00
  TRACK 10 AUDIO
    INDEX 00 03:16:48
FILE "10. I'll Get By.flac" WAVE
    INDEX 01 00:00:00
  TRACK 11 AUDIO
    INDEX 00 03:06:60
FILE "11. Mean To Me.flac" WAVE
    INDEX 01 00:00:00
  TRACK 12 AUDIO
    INDEX 00 03:06:65
FILE "12. Foolin' Myself.flac" WAVE
    INDEX 01 00:00:00
  TRACK 13 AUDIO
    INDEX 00 03:00:15
FILE "13. Easy Living.flac" WAVE
    INDEX 01 00:00:00
  TRACK 14 AUDIO
    INDEX 00 03:01:15
FILE "14. I'll Never Be The Same.flac" WAVE
    INDEX 01 00:00:00
  TRACK 15 AUDIO
    INDEX 00 03:03:07
FILE "15. I've Found A New Baby.flac" WAVE
    INDEX 01 00:00:00
  TRACK 16 AUDIO
    INDEX 00 02:41:10
FILE "16. You're My Desire.flac" WAVE
    INDEX 01 00:00:00
  TRACK 17 AUDIO
    INDEX 00 03:09:38
FILE "17. Remember Me.flac" WAVE
    INDEX 01 00:00:00
  TRACK 18 AUDIO
    INDEX 00 02:45:37
FILE "18. The Hour Of Parting.flac" WAVE
    INDEX 01 00:00:00
  TRACK 19 AUDIO
    INDEX 00 03:14:02
FILE "19. Coquette.flac" WAVE
    INDEX 01 00:00:00
  TRACK 20 AUDIO
    INDEX 00 02:44:50
FILE "20. Big Apple.flac" WAVE
    INDEX 01 00:00:00
  TRACK 21 AUDIO
    INDEX 00 02:49:18
FILE "21. You Can't Stop Me From Dreamin'.flac" WAVE
    INDEX 01 00:00:00
  TRACK 22 AUDIO
    INDEX 00 02:54:67
FILE "22. If I Had You.flac" WAVE
    INDEX 01 00:00:00
  TRACK 23 AUDIO
    INDEX 00 03:13:55
FILE "23. You Brought A New Kind Of Love To Me.flac" WAVE
    INDEX 01 00:00:00
  TRACK 24 AUDIO
    INDEX 00 02:53:05
FILE "24. Ain't Misbehavin'.flac" WAVE
    INDEX 01 00:00:00
Лог проверки качества
AUDIOCHECKER v2.0 beta (build 457) - by Dester - opdester@freemail.hu
~~~~~~~~~~~~~~~~~~~~~~~~~~~~~~~~~~
-=== DO NOT EDIT THIS FILE! ===-
Path: ...\Teddy Wilson - 1937 {CC, 531}
01 -=- 01. How Could You.flac -=- CDDA (100%)
02 -=- 02. Moanin' Low.flac -=- CDDA (100%)
03 -=- 03. Fine And Dandy.flac -=- CDDA (100%)
04 -=- 04. There's A Lull In My Life.flac -=- CDDA (99%)
05 -=- 05. It's Swell Of You.flac -=- CDDA (100%)
06 -=- 06. How Am I To Know.flac -=- CDDA (100%)
07 -=- 07. I'm Coming, Virginia.flac -=- CDDA (100%)
08 -=- 08. Sun Showers.flac -=- CDDA (100%)
09 -=- 09. Yours And Mine.flac -=- CDDA (100%)
10 -=- 10. I'll Get By.flac -=- CDDA (100%)
11 -=- 11. Mean To Me.flac -=- CDDA (100%)
12 -=- 12. Foolin' Myself.flac -=- CDDA (100%)
13 -=- 13. Easy Living.flac -=- CDDA (100%)
14 -=- 14. I'll Never Be The Same.flac -=- CDDA (100%)
15 -=- 15. I've Found A New Baby.flac -=- CDDA (100%)
16 -=- 16. You're My Desire.flac -=- CDDA (100%)
17 -=- 17. Remember Me.flac -=- CDDA (100%)
18 -=- 18. The Hour Of Parting.flac -=- CDDA (100%)
19 -=- 19. Coquette.flac -=- CDDA (100%)
20 -=- 20. Big Apple.flac -=- CDDA (100%)
21 -=- 21. You Can't Stop Me From Dreamin'.flac -=- CDDA (100%)
22 -=- 22. If I Had You.flac -=- CDDA (100%)
23 -=- 23. You Brought A New Kind Of Love To Me.flac -=- CDDA (100%)
24 -=- 24. Ain't Misbehavin'.flac -=- CDDA (100%)
Summary 99,96% CDDA
102829924
Any questions - support@pro-jazz.com. Есть вопросы - support@pro-jazz.com
00:57
331
Нет комментариев. Ваш будет первым!