Поиск

1990 Sammy Davis, Jr. ‎– Greatest Hits, Vol. II {DCC DZS-048} [CD]

1990 Sammy Davis, Jr. ‎– Greatest Hits, Vol. II {DCC DZS-048} [CD]
Страна-производитель диска (релиза):
USA
Дата издания диска:
1990
Издатель (лейбл):
Номер по каталогу:
DZS-048
Носитель:
CD
Аудиокодек:
FLAC (*.flac)
Тип рипа:
tracks+.cue
Битрейт аудио:
lossless
Время звучания:
00:41:18
Наличие сканов:
web
Треклист:

1    Mr. Bojangles    5:44
2    All That Jazz    2:12
3    We'll Be Together Again    2:49
4    The Goin's Great    2:26
5    The Shelter Of Your Arms    2:49
6    I'm Glad There Is You    2:28
7    If My Friends Could See Me Now    2:38
8    Every Time We Say Goodbye    2:33
9    Somebody    2:24
10    Here I'll Stay    3:08
11    Here's That Rainy Day    3:06
12    I Think I Like You    2:55
13    Children, Children    3:24
14    Please Don't Talk About Me When I'm Gone    2:38

Лог создания рипа
X Lossless Decoder version 20181019 (151.1)
XLD extraction logfile from 2019-02-07 18:17:57 -0500
Sammy Davis Jr. / Greatest Hits-Vol.2
Used drive : MATSHITA DVD-R   UJ-898 (revision HE13)
Media type : Pressed CD
Ripper mode             : XLD Secure Ripper
Disable audio cache     : OK for the drive with a cache less than 1375KiB
Make use of C2 pointers : NO
Read offset correction  : 102
Max retry count         : 100
Gap status              : Analyzed, Appended (except HTOA)

TOC of the extracted CD
     Track |   Start  |  Length  | Start sector | End sector 
    ---------------------------------------------------------
        1  | 00:00:33 | 05:44:15 |        33    |    25847   
        2  | 05:44:48 | 02:12:27 |     25848    |    35774   
        3  | 07:57:00 | 02:49:45 |     35775    |    48494   
        4  | 10:46:45 | 02:26:40 |     48495    |    59484   
        5  | 13:13:10 | 02:49:15 |     59485    |    72174   
        6  | 16:02:25 | 02:28:10 |     72175    |    83284   
        7  | 18:30:35 | 02:38:73 |     83285    |    95207   
        8  | 21:09:33 | 02:33:20 |     95208    |   106702   
        9  | 23:42:53 | 02:24:22 |    106703    |   117524   
       10  | 26:07:00 | 03:08:33 |    117525    |   131657   
       11  | 29:15:33 | 03:06:32 |    131658    |   145639   
       12  | 32:21:65 | 02:55:58 |    145640    |   158822   
       13  | 35:17:48 | 03:24:15 |    158823    |   174137   
       14  | 38:41:63 | 02:37:05 |    174138    |   185917   

AccurateRip Summary (DiscID: 0015fbc5-00e5a938-c909ae0e)
    Track 01 : OK (v1+v2, confidence 20/20)
    Track 02 : OK (v1+v2, confidence 20/20)
    Track 03 : OK (v1+v2, confidence 20/20)
    Track 04 : OK (v1+v2, confidence 20/20)
    Track 05 : OK (v1+v2, confidence 21/21)
    Track 06 : OK (v1+v2, confidence 20/20)
    Track 07 : OK (v1+v2, confidence 20/20)
    Track 08 : OK (v1+v2, confidence 20/20)
    Track 09 : OK (v1+v2, confidence 20/20)
    Track 10 : OK (v1+v2, confidence 20/20)
    Track 11 : OK (v1+v2, confidence 20/20)
    Track 12 : OK (v1+v2, confidence 19/19)
    Track 13 : OK (v1+v2, confidence 20/20)
    Track 14 : OK (v1+v2, confidence 20/20)
        ->All tracks accurately ripped.

All Tracks
    Album gain               : -4.84 dB
    Peak                     : 0.999969
    Statistics
        Read error                           : 0
        Jitter error (maybe fixed)           : 0
        Retry sector count                   : 0
        Damaged sector count                 : 0

Track 01
    Filename : /Users/Vin/Desktop/01 - Mr.Bojangles.flac
    Pre-gap length : 00:02:33

    Track gain               : -1.84 dB
    Peak                     : 0.999969
    CRC32 hash (test run)    : CA59554D
    CRC32 hash               : CA59554D
    CRC32 hash (skip zero)   : DD9DB024
    AccurateRip v1 signature : 78A790D7
    AccurateRip v2 signature : E86C39B6
        ->Accurately ripped (v1+v2, confidence 6+14/20)
    Statistics
        Read error                           : 0
        Jitter error (maybe fixed)           : 0
        Retry sector count                   : 0
        Damaged sector count                 : 0

Track 02
    Filename : /Users/Vin/Desktop/02 - All That Jazz.flac
    Pre-gap length : 00:01:08

    Track gain               : -5.29 dB
    Peak                     : 0.999969
    CRC32 hash (test run)    : CCDFEB3E
    CRC32 hash               : CCDFEB3E
    CRC32 hash (skip zero)   : 69ADE61F
    AccurateRip v1 signature : 7229A105
    AccurateRip v2 signature : 09E5D3C7
        ->Accurately ripped (v1+v2, confidence 6+14/20)
    Statistics
        Read error                           : 0
        Jitter error (maybe fixed)           : 0
        Retry sector count                   : 0
        Damaged sector count                 : 0

Track 03
    Filename : /Users/Vin/Desktop/03 - We'll Be Together Soon.flac
    Pre-gap length : 00:01:27

    Track gain               : -2.53 dB
    Peak                     : 0.999969
    CRC32 hash (test run)    : 8FFB6F15
    CRC32 hash               : 8FFB6F15
    CRC32 hash (skip zero)   : E106D894
    AccurateRip v1 signature : C1E9083D
    AccurateRip v2 signature : 98EAE26B
        ->Accurately ripped (v1+v2, confidence 6+14/20)
    Statistics
        Read error                           : 0
        Jitter error (maybe fixed)           : 0
        Retry sector count                   : 0
        Damaged sector count                 : 0

Track 04
    Filename : /Users/Vin/Desktop/04 - The Goin's Great.flac
    Pre-gap length : 00:01:25

    Track gain               : -4.40 dB
    Peak                     : 0.999969
    CRC32 hash (test run)    : 43707419
    CRC32 hash               : 43707419
    CRC32 hash (skip zero)   : 751F027B
    AccurateRip v1 signature : 48AD7DF7
    AccurateRip v2 signature : 056E57E1
        ->Accurately ripped (v1+v2, confidence 6+14/20)
    Statistics
        Read error                           : 0
        Jitter error (maybe fixed)           : 0
        Retry sector count                   : 0
        Damaged sector count                 : 0

Track 05
    Filename : /Users/Vin/Desktop/05 - The Shelter of Your Arms.flac
    Pre-gap length : 00:00:25

    Track gain               : -6.35 dB
    Peak                     : 0.998779
    CRC32 hash (test run)    : D062F823
    CRC32 hash               : D062F823
    CRC32 hash (skip zero)   : 5D21BD57
    AccurateRip v1 signature : C5B1B946
    AccurateRip v2 signature : 3FFA7CB3
        ->Accurately ripped (v1+v2, confidence 7+14/21)
    Statistics
        Read error                           : 0
        Jitter error (maybe fixed)           : 0
        Retry sector count                   : 0
        Damaged sector count                 : 0

Track 06
    Filename : /Users/Vin/Desktop/06 - I'm Glad There Is You.flac
    Pre-gap length : 00:00:35

    Track gain               : -1.70 dB
    Peak                     : 0.998840
    CRC32 hash (test run)    : C86EDD7B
    CRC32 hash               : C86EDD7B
    CRC32 hash (skip zero)   : 5A7596CD
    AccurateRip v1 signature : BFC6BD77
    AccurateRip v2 signature : 57AFD993
        ->Accurately ripped (v1+v2, confidence 6+14/20)
    Statistics
        Read error                           : 0
        Jitter error (maybe fixed)           : 0
        Retry sector count                   : 0
        Damaged sector count                 : 0

Track 07
    Filename : /Users/Vin/Desktop/07 - If My Friends Could See Me Now.flac
    Pre-gap length : 00:00:72

    Track gain               : -6.03 dB
    Peak                     : 0.999969
    CRC32 hash (test run)    : 2DD45F1F
    CRC32 hash               : 2DD45F1F
    CRC32 hash (skip zero)   : 9B088508
    AccurateRip v1 signature : 63FA6ADF
    AccurateRip v2 signature : AA3219C1
        ->Accurately ripped (v1+v2, confidence 6+14/20)
    Statistics
        Read error                           : 0
        Jitter error (maybe fixed)           : 0
        Retry sector count                   : 0
        Damaged sector count                 : 0

Track 08
    Filename : /Users/Vin/Desktop/08 - Every Time We Say Goodbye.flac
    Pre-gap length : 00:01:18

    Track gain               : -6.37 dB
    Peak                     : 0.995880
    CRC32 hash (test run)    : 1BEEB758
    CRC32 hash               : 1BEEB758
    CRC32 hash (skip zero)   : F0A8060D
    AccurateRip v1 signature : 0DDF39CF
    AccurateRip v2 signature : 36D4C64C
        ->Accurately ripped (v1+v2, confidence 6+14/20)
    Statistics
        Read error                           : 0
        Jitter error (maybe fixed)           : 0
        Retry sector count                   : 0
        Damaged sector count                 : 0

Track 09
    Filename : /Users/Vin/Desktop/09 - Somebody.flac
    Pre-gap length : 00:00:30

    Track gain               : -6.97 dB
    Peak                     : 0.999817
    CRC32 hash (test run)    : 372B8DDA
    CRC32 hash               : 372B8DDA
    CRC32 hash (skip zero)   : 217D2F02
    AccurateRip v1 signature : 80794C4F
    AccurateRip v2 signature : 3AC9F1D1
        ->Accurately ripped (v1+v2, confidence 6+14/20)
    Statistics
        Read error                           : 0
        Jitter error (maybe fixed)           : 0
        Retry sector count                   : 0
        Damaged sector count                 : 0

Track 10
    Filename : /Users/Vin/Desktop/10 - Here I'll Stay.flac
    Pre-gap length : 00:00:17

    Track gain               : -6.16 dB
    Peak                     : 0.999481
    CRC32 hash (test run)    : 8CDB0A70
    CRC32 hash               : 8CDB0A70
    CRC32 hash (skip zero)   : B4FB8CF9
    AccurateRip v1 signature : 32DE4DE7
    AccurateRip v2 signature : 2BD26576
        ->Accurately ripped (v1+v2, confidence 6+14/20)
    Statistics
        Read error                           : 0
        Jitter error (maybe fixed)           : 0
        Retry sector count                   : 0
        Damaged sector count                 : 0

Track 11
    Filename : /Users/Vin/Desktop/11 - Here's That Rainy Day.flac
    Pre-gap length : 00:01:03

    Track gain               : -1.58 dB
    Peak                     : 0.968903
    CRC32 hash (test run)    : 6C545035
    CRC32 hash               : 6C545035
    CRC32 hash (skip zero)   : FCB99B46
    AccurateRip v1 signature : 8E29883D
    AccurateRip v2 signature : 497636D8
        ->Accurately ripped (v1+v2, confidence 6+14/20)
    Statistics
        Read error                           : 0
        Jitter error (maybe fixed)           : 0
        Retry sector count                   : 0
        Damaged sector count                 : 0

Track 12
    Filename : /Users/Vin/Desktop/12 - I Think I Like You.flac
    Pre-gap length : 00:01:22

    Track gain               : -5.28 dB
    Peak                     : 0.996185
    CRC32 hash (test run)    : 0A726A1B
    CRC32 hash               : 0A726A1B
    CRC32 hash (skip zero)   : 13ACB162
    AccurateRip v1 signature : 07DDEAFA
    AccurateRip v2 signature : E9F7CC6F
        ->Accurately ripped (v1+v2, confidence 6+13/19)
    Statistics
        Read error                           : 0
        Jitter error (maybe fixed)           : 0
        Retry sector count                   : 0
        Damaged sector count                 : 0

Track 13
    Filename : /Users/Vin/Desktop/13 - Children,Children.flac
    Pre-gap length : 00:01:13

    Track gain               : -3.15 dB
    Peak                     : 0.988525
    CRC32 hash (test run)    : 8FC3CD51
    CRC32 hash               : 8FC3CD51
    CRC32 hash (skip zero)   : B8CA5FA8
    AccurateRip v1 signature : FBE005DA
    AccurateRip v2 signature : FC3CC391
        ->Accurately ripped (v1+v2, confidence 6+14/20)
    Statistics
        Read error                           : 0
        Jitter error (maybe fixed)           : 0
        Retry sector count                   : 0
        Damaged sector count                 : 0

Track 14
    Filename : /Users/Vin/Desktop/14 - Please Don't Talk About Me When I'm Gone.flac
    Pre-gap length : 00:00:25

    Track gain               : -4.11 dB
    Peak                     : 0.999969
    CRC32 hash (test run)    : 384267AB
    CRC32 hash               : 384267AB
    CRC32 hash (skip zero)   : 00A0E91A
    AccurateRip v1 signature : 7D44C5E5
    AccurateRip v2 signature : 0FB458BB
        ->Accurately ripped (v1+v2, confidence 6+14/20)
    Statistics
        Read error                           : 0
        Jitter error (maybe fixed)           : 0
        Retry sector count                   : 0
        Damaged sector count                 : 0

No errors occurred

End of status report

-----BEGIN XLD SIGNATURE-----
SHZOJ53ebcu2zg4fU4GYv2831.E0X7HWm037H1VBSCxJuzBxItQrzttxwE2B4DUTUH6NeFm_xKBOW0iKZe4lgSMimgLVuJaaI0KN3rm
-----END XLD SIGNATURE-----
Содержание индексной карты (.CUE)
TITLE "Greatest Hits-Vol.2"
PERFORMER "Sammy Davis Jr."
REM DISCID C909AE0E
REM REPLAYGAIN_ALBUM_GAIN -4.84 dB
REM REPLAYGAIN_ALBUM_PEAK 0.999969
FILE "01 - Mr.Bojangles.flac" WAVE
  TRACK 01 AUDIO
    TITLE "Mr.Bojangles"
    REM REPLAYGAIN_TRACK_GAIN -1.84 dB
    REM REPLAYGAIN_TRACK_PEAK 0.999969
    PREGAP 00:00:33
    INDEX 01 00:00:00
  TRACK 02 AUDIO
    TITLE "All That Jazz"
    REM REPLAYGAIN_TRACK_GAIN -5.29 dB
    REM REPLAYGAIN_TRACK_PEAK 0.999969
    INDEX 00 05:43:07
FILE "02 - All That Jazz.flac" WAVE
    INDEX 01 00:00:00
  TRACK 03 AUDIO
    TITLE "We'll Be Together Soon"
    REM REPLAYGAIN_TRACK_GAIN -2.53 dB
    REM REPLAYGAIN_TRACK_PEAK 0.999969
    INDEX 00 02:11:00
FILE "03 - We'll Be Together Soon.flac" WAVE
    INDEX 01 00:00:00
  TRACK 04 AUDIO
    TITLE "The Goin's Great"
    REM REPLAYGAIN_TRACK_GAIN -4.40 dB
    REM REPLAYGAIN_TRACK_PEAK 0.999969
    INDEX 00 02:48:20
FILE "04 - The Goin's Great.flac" WAVE
    INDEX 01 00:00:00
  TRACK 05 AUDIO
    TITLE "The Shelter of Your Arms"
    REM REPLAYGAIN_TRACK_GAIN -6.35 dB
    REM REPLAYGAIN_TRACK_PEAK 0.998779
    INDEX 00 02:26:15
FILE "05 - The Shelter of Your Arms.flac" WAVE
    INDEX 01 00:00:00
  TRACK 06 AUDIO
    TITLE "I'm Glad There Is You"
    REM REPLAYGAIN_TRACK_GAIN -1.70 dB
    REM REPLAYGAIN_TRACK_PEAK 0.998840
    INDEX 00 02:48:55
FILE "06 - I'm Glad There Is You.flac" WAVE
    INDEX 01 00:00:00
  TRACK 07 AUDIO
    TITLE "If My Friends Could See Me Now"
    REM REPLAYGAIN_TRACK_GAIN -6.03 dB
    REM REPLAYGAIN_TRACK_PEAK 0.999969
    INDEX 00 02:27:13
FILE "07 - If My Friends Could See Me Now.flac" WAVE
    INDEX 01 00:00:00
  TRACK 08 AUDIO
    TITLE "Every Time We Say Goodbye"
    REM REPLAYGAIN_TRACK_GAIN -6.37 dB
    REM REPLAYGAIN_TRACK_PEAK 0.995880
    INDEX 00 02:37:55
FILE "08 - Every Time We Say Goodbye.flac" WAVE
    INDEX 01 00:00:00
  TRACK 09 AUDIO
    TITLE "Somebody"
    REM REPLAYGAIN_TRACK_GAIN -6.97 dB
    REM REPLAYGAIN_TRACK_PEAK 0.999817
    INDEX 00 02:32:65
FILE "09 - Somebody.flac" WAVE
    INDEX 01 00:00:00
  TRACK 10 AUDIO
    TITLE "Here I'll Stay"
    REM REPLAYGAIN_TRACK_GAIN -6.16 dB
    REM REPLAYGAIN_TRACK_PEAK 0.999481
    INDEX 00 02:24:05
FILE "10 - Here I'll Stay.flac" WAVE
    INDEX 01 00:00:00
  TRACK 11 AUDIO
    TITLE "Here's That Rainy Day"
    REM REPLAYGAIN_TRACK_GAIN -1.58 dB
    REM REPLAYGAIN_TRACK_PEAK 0.968903
    INDEX 00 03:07:30
FILE "11 - Here's That Rainy Day.flac" WAVE
    INDEX 01 00:00:00
  TRACK 12 AUDIO
    TITLE "I Think I Like You"
    REM REPLAYGAIN_TRACK_GAIN -5.28 dB
    REM REPLAYGAIN_TRACK_PEAK 0.996185
    INDEX 00 03:05:10
FILE "12 - I Think I Like You.flac" WAVE
    INDEX 01 00:00:00
  TRACK 13 AUDIO
    TITLE "Children,Children"
    REM REPLAYGAIN_TRACK_GAIN -3.15 dB
    REM REPLAYGAIN_TRACK_PEAK 0.988525
    INDEX 00 02:54:45
FILE "13 - Children,Children.flac" WAVE
    INDEX 01 00:00:00
  TRACK 14 AUDIO
    TITLE "Please Don't Talk About Me When I'm Gone"
    REM REPLAYGAIN_TRACK_GAIN -4.11 dB
    REM REPLAYGAIN_TRACK_PEAK 0.999969
    INDEX 00 03:23:65
FILE "14 - Please Don't Talk About Me When I'm Gone.flac" WAVE
    INDEX 01 00:00:00
Скачивание доступно после регистрации!!
Приватный:
Нет (DHT включён)
Размер:
247.56 Мб (259,587,550 байт) » файлов: 27
Участники:
3 раздают, 0 качают (3 участников всего)
Внешние участники:
--- [ Обновить ]
11:59
11
Нет комментариев. Ваш будет первым!