Вы используете незарегистрированную версию компонента "Вкладки"!

Поиск

1990 Fletcher Henderson And His Orchestra - 1934-1937 {The Chronological Classics 527) [CD]

1990 Fletcher Henderson And His Orchestra - 1934-1937 {The Chronological Classics 527) [CD]
Стили:
Дата записи диска:
25 сентября 1935 - 2 марта 1937
Издатель (лейбл):
Номер по каталогу:
527
Носитель:
CD
Тип рипа:
tracks+.cue
Аудиокодек:
FLAC (*.flac)
Битрейт аудио:
lossless
Время звучания:
01:09:59
Наличие сканов:
буклет pdf
Страна-производитель диска (релиза):
France
Релизёр (источник):
M0p94ok
Лог создания рипа
Exact Audio Copy V1.0 beta 2 from 29. April 2011

EAC extraction logfile from 24. August 2011, 20:08

Fletcher Henderson And His Orchestra / 1934-1937

Used drive  : Optiarc DVD RW AD-7170A   Adapter: 1  ID: 0

Read mode               : Secure
Utilize accurate stream : Yes
Defeat audio cache      : Yes
Make use of C2 pointers : No

Read offset correction                      : 48
Overread into Lead-In and Lead-Out          : No
Fill up missing offset samples with silence : Yes
Delete leading and trailing silent blocks   : No
Null samples used in CRC calculations       : Yes
Used interface                              : Native Win32 interface for Win NT & 2000
Gap handling                                : Appended to previous track

Used output format              : User Defined Encoder
Selected bitrate                : 1024 kBit/s
Quality                         : High
Add ID3 tag                     : No
Command line compressor         : C:\Program Files (x86)\Exact Audio Copy\Flac\flac.exe
Additional command line options : -8 -V -T "ARTIST=%artist%" -T "TITLE=%title%" -T "ALBUM=%albumtitle%" -T "DATE=%year%" -T "TRACKNUMBER=%tracknr%" -T "GENRE=%genre%" -T "PERFORMER=%albuminterpret%" -T "COMPOSER=%composer%" %haslyrics%--tag-from-file=LYRICS


TOC of the extracted CD

     Track |   Start  |  Length  | Start sector | End sector 
    ---------------------------------------------------------
        1  |  0:00.32 |  3:04.18 |        32    |    13849   
        2  |  3:04.50 |  3:03.47 |     13850    |    27621   
        3  |  6:08.22 |  2:52.73 |     27622    |    40594   
        4  |  9:01.20 |  2:39.05 |     40595    |    52524   
        5  | 11:40.25 |  3:03.50 |     52525    |    66299   
        6  | 14:44.00 |  3:01.47 |     66300    |    79921   
        7  | 17:45.47 |  3:09.18 |     79922    |    94114   
        8  | 20:54.65 |  3:01.35 |     94115    |   107724   
        9  | 23:56.25 |  2:40.40 |    107725    |   119764   
       10  | 26:36.65 |  2:46.22 |    119765    |   132236   
       11  | 29:23.12 |  3:04.30 |    132237    |   146066   
       12  | 32:27.42 |  2:37.40 |    146067    |   157881   
       13  | 35:05.07 |  2:29.20 |    157882    |   169076   
       14  | 37:34.27 |  3:04.20 |    169077    |   182896   
       15  | 40:38.47 |  2:44.35 |    182897    |   195231   
       16  | 43:23.07 |  2:24.65 |    195232    |   206096   
       17  | 45:47.72 |  2:51.33 |    206097    |   218954   
       18  | 48:39.30 |  3:35.15 |    218955    |   235094   
       19  | 52:14.45 |  2:35.07 |    235095    |   246726   
       20  | 54:49.52 |  2:33.73 |    246727    |   258274   
       21  | 57:23.50 |  2:58.40 |    258275    |   271664   
       22  | 60:22.15 |  2:46.20 |    271665    |   284134   
       23  | 63:08.35 |  3:31.42 |    284135    |   300001   
       24  | 66:40.02 |  3:30.30 |    300002    |   315781   


Track  1

     Filename E:\Vuze_BitTorrent_DLs\EAC Rips\Fletcher Henderson And His Orchestra - 1934-1937 (1990) [FLAC] {Chronological Classics 527}\01 - Wild Party.wav

     Pre-gap length  0:00:02.42

     Peak level 90.7 %
     Extraction speed 3.5 X
     Track quality 99.9 %
     Test CRC C6D3C5C5
     Copy CRC C6D3C5C5
     Accurately ripped (confidence 4)  [81DA2057]  (AR v1)
     Copy OK

Track  2

     Filename E:\Vuze_BitTorrent_DLs\EAC Rips\Fletcher Henderson And His Orchestra - 1934-1937 (1990) [FLAC] {Chronological Classics 527}\02 - Rug Cutter's Swing.wav

     Pre-gap length  0:00:02.53

     Peak level 99.9 %
     Extraction speed 4.6 X
     Track quality 100.0 %
     Test CRC B115FB65
     Copy CRC B115FB65
     Accurately ripped (confidence 4)  [BE9CF1FA]  (AR v1)
     Copy OK

Track  3

     Filename E:\Vuze_BitTorrent_DLs\EAC Rips\Fletcher Henderson And His Orchestra - 1934-1937 (1990) [FLAC] {Chronological Classics 527}\03 - Hotter Than 'Ell.wav

     Pre-gap length  0:00:03.00

     Peak level 94.8 %
     Extraction speed 3.9 X
     Track quality 99.9 %
     Test CRC 530B2A45
     Copy CRC 530B2A45
     Accurately ripped (confidence 4)  [6572AAFD]  (AR v1)
     Copy OK

Track  4

     Filename E:\Vuze_BitTorrent_DLs\EAC Rips\Fletcher Henderson And His Orchestra - 1934-1937 (1990) [FLAC] {Chronological Classics 527}\04 - Liza (All The Clouds 'll Roll Away).wav

     Pre-gap length  0:00:01.90

     Peak level 100.0 %
     Extraction speed 5.2 X
     Track quality 100.0 %
     Test CRC D945C680
     Copy CRC D945C680
     Accurately ripped (confidence 4)  [60394EA9]  (AR v1)
     Copy OK

Track  5

     Filename E:\Vuze_BitTorrent_DLs\EAC Rips\Fletcher Henderson And His Orchestra - 1934-1937 (1990) [FLAC] {Chronological Classics 527}\05 - Christopher Columbus.wav

     Pre-gap length  0:00:01.50

     Peak level 87.5 %
     Extraction speed 5.6 X
     Track quality 100.0 %
     Test CRC CE95DC1B
     Copy CRC CE95DC1B
     Accurately ripped (confidence 4)  [4642E3BF]  (AR v1)
     Copy OK

Track  6

     Filename E:\Vuze_BitTorrent_DLs\EAC Rips\Fletcher Henderson And His Orchestra - 1934-1937 (1990) [FLAC] {Chronological Classics 527}\06 - Big Chief De Sota.wav

     Pre-gap length  0:00:01.60

     Peak level 84.5 %
     Extraction speed 5.6 X
     Track quality 100.0 %
     Test CRC 5DD3F959
     Copy CRC 5DD3F959
     Accurately ripped (confidence 4)  [2ED6A9B1]  (AR v1)
     Copy OK

Track  7

     Filename E:\Vuze_BitTorrent_DLs\EAC Rips\Fletcher Henderson And His Orchestra - 1934-1937 (1990) [FLAC] {Chronological Classics 527}\07 - Blue Lou.wav

     Pre-gap length  0:00:01.62

     Peak level 87.1 %
     Extraction speed 4.8 X
     Track quality 99.9 %
     Test CRC 542A5A27
     Copy CRC 542A5A27
     Accurately ripped (confidence 4)  [4DEA7479]  (AR v1)
     Copy OK

Track  8

     Filename E:\Vuze_BitTorrent_DLs\EAC Rips\Fletcher Henderson And His Orchestra - 1934-1937 (1990) [FLAC] {Chronological Classics 527}\08 - Stealin' Apples.wav

     Pre-gap length  0:00:02.40

     Peak level 96.3 %
     Extraction speed 6.3 X
     Track quality 100.0 %
     Test CRC F20D0464
     Copy CRC F20D0464
     Accurately ripped (confidence 4)  [9D34FE29]  (AR v1)
     Copy OK

Track  9

     Filename E:\Vuze_BitTorrent_DLs\EAC Rips\Fletcher Henderson And His Orchestra - 1934-1937 (1990) [FLAC] {Chronological Classics 527}\09 - I'm A Fool For Loving You.wav

     Pre-gap length  0:00:02.06

     Peak level 89.8 %
     Extraction speed 6.4 X
     Track quality 100.0 %
     Test CRC 195DB1AE
     Copy CRC 195DB1AE
     Accurately ripped (confidence 4)  [41BACB23]  (AR v1)
     Copy OK

Track 10

     Filename E:\Vuze_BitTorrent_DLs\EAC Rips\Fletcher Henderson And His Orchestra - 1934-1937 (1990) [FLAC] {Chronological Classics 527}\10 - Moonrise On The Lowlands.wav

     Pre-gap length  0:00:02.20

     Peak level 85.4 %
     Extraction speed 6.7 X
     Track quality 100.0 %
     Test CRC 64976DEC
     Copy CRC 64976DEC
     Accurately ripped (confidence 4)  [4470E667]  (AR v1)
     Copy OK

Track 11

     Filename E:\Vuze_BitTorrent_DLs\EAC Rips\Fletcher Henderson And His Orchestra - 1934-1937 (1990) [FLAC] {Chronological Classics 527}\11 - I'll Always Be In Love With You.wav

     Pre-gap length  0:00:03.20

     Peak level 87.4 %
     Extraction speed 7.0 X
     Track quality 100.0 %
     Test CRC 12027396
     Copy CRC 12027396
     Accurately ripped (confidence 5)  [DAF38A05]  (AR v1)
     Copy OK

Track 12

     Filename E:\Vuze_BitTorrent_DLs\EAC Rips\Fletcher Henderson And His Orchestra - 1934-1937 (1990) [FLAC] {Chronological Classics 527}\12 - Jangled Nerves.wav

     Pre-gap length  0:00:02.46

     Peak level 90.1 %
     Extraction speed 7.0 X
     Track quality 100.0 %
     Test CRC F6A80B94
     Copy CRC F6A80B94
     Accurately ripped (confidence 5)  [725990D7]  (AR v1)
     Copy OK

Track 13

     Filename E:\Vuze_BitTorrent_DLs\EAC Rips\Fletcher Henderson And His Orchestra - 1934-1937 (1990) [FLAC] {Chronological Classics 527}\13 - Where Theres You There's Me.wav

     Pre-gap length  0:00:02.89

     Peak level 100.0 %
     Extraction speed 7.0 X
     Track quality 100.0 %
     Test CRC A7590800
     Copy CRC A7590800
     Accurately ripped (confidence 5)  [A89E54D8]  (AR v1)
     Copy OK

Track 14

     Filename E:\Vuze_BitTorrent_DLs\EAC Rips\Fletcher Henderson And His Orchestra - 1934-1937 (1990) [FLAC] {Chronological Classics 527}\14 - Do You Or Don't You Love Me.wav

     Pre-gap length  0:00:02.13

     Peak level 93.3 %
     Extraction speed 5.8 X
     Track quality 99.9 %
     Test CRC 04DF47F7
     Copy CRC 04DF47F7
     Accurately ripped (confidence 5)  [27F42BC4]  (AR v1)
     Copy OK

Track 15

     Filename E:\Vuze_BitTorrent_DLs\EAC Rips\Fletcher Henderson And His Orchestra - 1934-1937 (1990) [FLAC] {Chronological Classics 527}\15 - Grand Terrace Rhythm.wav

     Pre-gap length  0:00:02.60

     Peak level 82.1 %
     Extraction speed 7.5 X
     Track quality 100.0 %
     Test CRC DBB0D11C
     Copy CRC DBB0D11C
     Accurately ripped (confidence 5)  [3A913B67]  (AR v1)
     Copy OK

Track 16

     Filename E:\Vuze_BitTorrent_DLs\EAC Rips\Fletcher Henderson And His Orchestra - 1934-1937 (1990) [FLAC] {Chronological Classics 527}\16 - Riffin'.wav

     Pre-gap length  0:00:01.69

     Peak level 86.1 %
     Extraction speed 7.2 X
     Track quality 100.0 %
     Test CRC FA33A044
     Copy CRC FA33A044
     Accurately ripped (confidence 5)  [4F6816B4]  (AR v1)
     Copy OK

Track 17

     Filename E:\Vuze_BitTorrent_DLs\EAC Rips\Fletcher Henderson And His Orchestra - 1934-1937 (1990) [FLAC] {Chronological Classics 527}\17 - Mary Had A Little Lamb.wav

     Pre-gap length  0:00:02.49

     Peak level 94.1 %
     Extraction speed 7.9 X
     Track quality 100.0 %
     Test CRC AE32266C
     Copy CRC AE32266C
     Accurately ripped (confidence 5)  [29D97BCC]  (AR v1)
     Copy OK

Track 18

     Filename E:\Vuze_BitTorrent_DLs\EAC Rips\Fletcher Henderson And His Orchestra - 1934-1937 (1990) [FLAC] {Chronological Classics 527}\18 - Shoe Shine Boy.wav

     Pre-gap length  0:00:02.44

     Peak level 83.2 %
     Extraction speed 8.2 X
     Track quality 100.0 %
     Test CRC 9FB7F500
     Copy CRC 9FB7F500
     Accurately ripped (confidence 5)  [990281CB]  (AR v1)
     Copy OK

Track 19

     Filename E:\Vuze_BitTorrent_DLs\EAC Rips\Fletcher Henderson And His Orchestra - 1934-1937 (1990) [FLAC] {Chronological Classics 527}\19 - Sing, Sing, Sing.wav

     Pre-gap length  0:00:02.70

     Peak level 96.7 %
     Extraction speed 7.9 X
     Track quality 100.0 %
     Test CRC E91F14D0
     Copy CRC E91F14D0
     Accurately ripped (confidence 5)  [558FA863]  (AR v1)
     Copy OK

Track 20

     Filename E:\Vuze_BitTorrent_DLs\EAC Rips\Fletcher Henderson And His Orchestra - 1934-1937 (1990) [FLAC] {Chronological Classics 527}\20 - Until Today.wav

     Pre-gap length  0:00:01.96

     Peak level 78.2 %
     Extraction speed 8.0 X
     Track quality 100.0 %
     Test CRC D89342A1
     Copy CRC D89342A1
     Accurately ripped (confidence 5)  [7F7FA7B9]  (AR v1)
     Copy OK

Track 21

     Filename E:\Vuze_BitTorrent_DLs\EAC Rips\Fletcher Henderson And His Orchestra - 1934-1937 (1990) [FLAC] {Chronological Classics 527}\21 - Knock, Knock Who's There.wav

     Pre-gap length  0:00:02.04

     Peak level 90.8 %
     Extraction speed 8.4 X
     Track quality 100.0 %
     Test CRC 58CD5753
     Copy CRC 58CD5753
     Accurately ripped (confidence 5)  [69C1D54B]  (AR v1)
     Copy OK

Track 22

     Filename E:\Vuze_BitTorrent_DLs\EAC Rips\Fletcher Henderson And His Orchestra - 1934-1937 (1990) [FLAC] {Chronological Classics 527}\22 - Jim Town Blues.wav

     Pre-gap length  0:00:02.50

     Peak level 88.4 %
     Extraction speed 4.7 X
     Track quality 100.0 %
     Test CRC 563A3135
     Copy CRC 563A3135
     Accurately ripped (confidence 5)  [935ABD18]  (AR v1)
     Copy OK

Track 23

     Filename E:\Vuze_BitTorrent_DLs\EAC Rips\Fletcher Henderson And His Orchestra - 1934-1937 (1990) [FLAC] {Chronological Classics 527}\23 - You Can Depend On Me.wav

     Pre-gap length  0:00:01.70

     Peak level 86.8 %
     Extraction speed 6.5 X
     Track quality 99.9 %
     Test CRC F9666161
     Copy CRC F9666161
     Accurately ripped (confidence 5)  [F5A717C6]  (AR v1)
     Copy OK

Track 24

     Filename E:\Vuze_BitTorrent_DLs\EAC Rips\Fletcher Henderson And His Orchestra - 1934-1937 (1990) [FLAC] {Chronological Classics 527}\24 - What Will I Tell My Heart.wav

     Pre-gap length  0:00:03.00

     Peak level 81.1 %
     Extraction speed 8.4 X
     Track quality 100.0 %
     Test CRC 0164910D
     Copy CRC D60E80E0
     Accurately ripped (confidence 5)  [F0CDE099]  (AR v1)
     Copy OK


All tracks accurately ripped

No errors occurred

End of status report

==== Log checksum 8AABD396346FF26468EDE19D28C3BE7952DDDA89217C1FCA7ED77C97F4CB7E10 ====
Any questions - support@pro-jazz.com. Есть вопросы - support@pro-jazz.com
01:20
236
Нет комментариев. Ваш будет первым!