Поиск

1990 Fletcher Henderson And His Orchestra — 1932-1934 {The Chronological Classics 535} [CD]

1990 Fletcher Henderson And His Orchestra — 1932-1934 {The Chronological Classics 535} [CD]
Дата записи диска:
9 декабря 1932 - 12 сентября 1934
Издатель (лейбл):
Номер по каталогу:
535
Треклист:
01. Honeysukle Rose (3:13)
02. New King Porter Stomp (3:08)
03. Underneath The Harlem Moon (3:15)
04. Yeah Man! (2:56)
05. King Porter's Stomp (2:57)
06. Queer Notions (2:50)
07. Can You Take It? (2:51)
08. Queer Notions (2:34)
09. It's The Talk Of The Town (3:34)
10. Night Life (3:27)
11. Nagasaki (3:28)
12. Hocus Pocus (3:19)
13. Phantom Fantasie (3:16)
14. Harlem Madness (3:31)
15. Tidal Wave (3:04)
16. Limehouse Blues (2:40)
17. Shanghai Shuffle (3:05)
18. Big John's Special (2:51)
19. Happy As The Day Is Long (2:48)
20. Tidal Wave (3:06)
21. Down South Camp Meetin' (2:59)
22. Wrappin' It Up (2:44)
23. Memphis Blues (2:34)
Состав:
  • Bernard Addison    Guitar
  • Henry "Red" Allen    Trumpet
  • Buster Bailey    Clarinet
  • Vic Engle    Drums
  • Katherine Handy    Vocals
  • Coleman Hawkins    Clarinet, Composer, Sax (Tenor)
  • Fletcher Henderson    Arranger, Composer, Director, Piano
  • Horace Henderson    Arranger, Piano
  • Charles Holland    Vocals
  • Claude Hopkins    Arranger
  • Will Hudson    Arranger, Composer
  • Elmer James    String Bass
  • Hilton Jefferson    Clarinet, Double Bass, Sax (Alto)
  • Keg Johnson    Trombone
  • Walter Johnson    Drums
  • Claude Jones    Trombone
  • John Kirby    String Bass, Tuba
  • Lawrence Lucie    Guitar
  • Russ Morgan    Arranger, Composer
  • Russell Procope    Clarinet, Double Bass, Sax (Alto)
  • Irving "Mouse" Randolph    Trumpet
  • Bobby Stark    Trumpet
  • Rex Stewart    Trumpet
  • Ben Webster    Sax (Tenor)
  • Dicky Wells    Trombone
  • Freddy White    Guitar
  • Sandy Williams    Trombone
Доп. инфо:

Год издания диска: 1990
Издатель (лейбл): Classics
Номер по каталогу: 535
Аудиокодек: FLAC (*.flac)
Тип рипа: tracks+.cue
Битрейт аудио: lossless
Продолжительность: 70:11
Наличие сканов в содержимом раздачи: да

Лог создания рипа
Exact Audio Copy V1.0 beta 2 from 29. April 2011
EAC extraction logfile from 24. August 2011, 16:37
Fletcher Henderson And His Orchestra / 1932-1934
Used drive  : Optiarc DVD RW AD-7170A   Adapter: 1  ID: 0
Read mode               : Secure
Utilize accurate stream : Yes
Defeat audio cache      : Yes
Make use of C2 pointers : No
Read offset correction                      : 48
Overread into Lead-In and Lead-Out          : No
Fill up missing offset samples with silence : Yes
Delete leading and trailing silent blocks   : No
Null samples used in CRC calculations       : Yes
Used interface                              : Native Win32 interface for Win NT & 2000
Gap handling                                : Appended to previous track
Used output format              : User Defined Encoder
Selected bitrate                : 1024 kBit/s
Quality                         : High
Add ID3 tag                     : No
Command line compressor         : C:\Program Files (x86)\Exact Audio Copy\Flac\flac.exe
Additional command line options : -8 -V -T "ARTIST=%artist%" -T "TITLE=%title%" -T "ALBUM=%albumtitle%" -T "DATE=%year%" -T "TRACKNUMBER=%tracknr%" -T "GENRE=%genre%" -T "PERFORMER=%albuminterpret%" -T "COMPOSER=%composer%" %haslyrics%--tag-from-file=LYRICS
TOC of the extracted CD
     Track |   Start  |  Length  | Start sector | End sector
    ---------------------------------------------------------
        1  |  0:00.33 |  3:13.07 |        33    |    14514
        2  |  3:13.40 |  3:08.28 |     14515    |    28642
        3  |  6:21.68 |  3:15.27 |     28643    |    43294
        4  |  9:37.20 |  2:56.05 |     43295    |    56499
        5  | 12:33.25 |  2:57.00 |     56500    |    69774
        6  | 15:30.25 |  2:50.28 |     69775    |    82552
        7  | 18:20.53 |  2:51.00 |     82553    |    95377
        8  | 21:11.53 |  2:33.47 |     95378    |   106899
        9  | 23:45.25 |  3:33.55 |    106900    |   122929
       10  | 27:19.05 |  3:26.63 |    122930    |   138442
       11  | 30:45.68 |  3:27.60 |    138443    |   154027
       12  | 34:13.53 |  3:18.42 |    154028    |   168919
       13  | 37:32.20 |  3:16.03 |    168920    |   183622
       14  | 40:48.23 |  3:30.62 |    183623    |   199434
       15  | 44:19.10 |  3:03.70 |    199435    |   213229
       16  | 47:23.05 |  2:40.33 |    213230    |   225262
       17  | 50:03.38 |  3:05.20 |    225263    |   239157
       18  | 53:08.58 |  2:51.35 |    239158    |   252017
       19  | 56:00.18 |  2:47.62 |    252018    |   264604
       20  | 58:48.05 |  3:05.68 |    264605    |   278547
       21  | 61:53.73 |  2:59.20 |    278548    |   291992
       22  | 64:53.18 |  2:43.57 |    291993    |   304274
       23  | 67:37.00 |  2:34.33 |    304275    |   315857
Track  1
     Filename E:\Vuze_BitTorrent_DLs\EAC Rips\Fletcher Henderson And His Orchestra - 1932-1934 (1990) [FLAC] {Chronological Classics 535}\01 - Honeysukle Rose.wav
     Pre-gap length  0:00:02.44
     Peak level 93.8 %
     Extraction speed 4.6 X
     Track quality 100.0 %
     Test CRC 2BEC6016
     Copy CRC 2BEC6016
     Accurately ripped (confidence 3)  [02ADF2F0]  (AR v1)
     Copy OK
Track  2
     Filename E:\Vuze_BitTorrent_DLs\EAC Rips\Fletcher Henderson And His Orchestra - 1932-1934 (1990) [FLAC] {Chronological Classics 535}\02 - New King Porter Stomp.wav
     Pre-gap length  0:00:02.02
     Peak level 78.7 %
     Extraction speed 4.9 X
     Track quality 100.0 %
     Test CRC EFCA3502
     Copy CRC EFCA3502
     Accurately ripped (confidence 3)  [7E7482AD]  (AR v1)
     Copy OK
Track  3
     Filename E:\Vuze_BitTorrent_DLs\EAC Rips\Fletcher Henderson And His Orchestra - 1932-1934 (1990) [FLAC] {Chronological Classics 535}\03 - Underneath The Harlem Moon.wav
     Pre-gap length  0:00:01.94
     Peak level 63.0 %
     Extraction speed 5.2 X
     Track quality 100.0 %
     Test CRC EFB80564
     Copy CRC EFB80564
     Accurately ripped (confidence 4)  [DEB6E5D0]  (AR v1)
     Copy OK
Track  4
     Filename E:\Vuze_BitTorrent_DLs\EAC Rips\Fletcher Henderson And His Orchestra - 1932-1934 (1990) [FLAC] {Chronological Classics 535}\04 - Yeah Man!.wav
     Pre-gap length  0:00:02.36
     Peak level 76.9 %
     Extraction speed 5.5 X
     Track quality 100.0 %
     Test CRC 7E700078
     Copy CRC 7E700078
     Accurately ripped (confidence 3)  [CF799A4E]  (AR v1)
     Copy OK
Track  5
     Filename E:\Vuze_BitTorrent_DLs\EAC Rips\Fletcher Henderson And His Orchestra - 1932-1934 (1990) [FLAC] {Chronological Classics 535}\05 - King Porter Stomp.wav
     Pre-gap length  0:00:02.56
     Peak level 55.9 %
     Extraction speed 5.8 X
     Track quality 100.0 %
     Test CRC 7F9AECF5
     Copy CRC 7F9AECF5
     Accurately ripped (confidence 3)  [CA15E391]  (AR v1)
     Copy OK
Track  6
     Filename E:\Vuze_BitTorrent_DLs\EAC Rips\Fletcher Henderson And His Orchestra - 1932-1934 (1990) [FLAC] {Chronological Classics 535}\06 - Queer Notions.wav
     Pre-gap length  0:00:02.80
     Peak level 65.5 %
     Extraction speed 6.0 X
     Track quality 100.0 %
     Test CRC 8ED25670
     Copy CRC 8ED25670
     Accurately ripped (confidence 3)  [B0253F70]  (AR v1)
     Copy OK
Track  7
     Filename E:\Vuze_BitTorrent_DLs\EAC Rips\Fletcher Henderson And His Orchestra - 1932-1934 (1990) [FLAC] {Chronological Classics 535}\07 - Can You Take It.wav
     Pre-gap length  0:00:02.00
     Peak level 83.5 %
     Extraction speed 4.8 X
     Track quality 99.9 %
     Test CRC AB53C9C6
     Copy CRC AB53C9C6
     Accurately ripped (confidence 3)  [FB4E0D3B]  (AR v1)
     Copy OK
Track  8
     Filename E:\Vuze_BitTorrent_DLs\EAC Rips\Fletcher Henderson And His Orchestra - 1932-1934 (1990) [FLAC] {Chronological Classics 535}\08 - Queer Notions.wav
     Pre-gap length  0:00:02.60
     Peak level 85.4 %
     Extraction speed 6.2 X
     Track quality 100.0 %
     Test CRC 9A6B07FB
     Copy CRC 9A6B07FB
     Accurately ripped (confidence 3)  [40C9B81B]  (AR v1)
     Copy OK
Track  9
     Filename E:\Vuze_BitTorrent_DLs\EAC Rips\Fletcher Henderson And His Orchestra - 1932-1934 (1990) [FLAC] {Chronological Classics 535}\09 - It's The Talk Of The Town.wav
     Pre-gap length  0:00:01.73
     Peak level 84.1 %
     Extraction speed 6.9 X
     Track quality 100.0 %
     Test CRC 72BD6EE7
     Copy CRC 72BD6EE7
     Accurately ripped (confidence 3)  [83BAB403]  (AR v1)
     Copy OK
Track 10
     Filename E:\Vuze_BitTorrent_DLs\EAC Rips\Fletcher Henderson And His Orchestra - 1932-1934 (1990) [FLAC] {Chronological Classics 535}\10 - Night Life.wav
     Pre-gap length  0:00:02.16
     Peak level 75.7 %
     Extraction speed 5.6 X
     Track quality 99.9 %
     Test CRC 0904364F
     Copy CRC 0904364F
     Accurately ripped (confidence 3)  [8D203346]  (AR v1)
     Copy OK
Track 11
     Filename E:\Vuze_BitTorrent_DLs\EAC Rips\Fletcher Henderson And His Orchestra - 1932-1934 (1990) [FLAC] {Chronological Classics 535}\11 - Nagasaki.wav
     Pre-gap length  0:00:03.28
     Peak level 75.6 %
     Extraction speed 5.8 X
     Track quality 99.9 %
     Test CRC ED703186
     Copy CRC ED703186
     Accurately ripped (confidence 4)  [C56E50FF]  (AR v1)
     Copy OK
Track 12
     Filename E:\Vuze_BitTorrent_DLs\EAC Rips\Fletcher Henderson And His Orchestra - 1932-1934 (1990) [FLAC] {Chronological Classics 535}\12 - Hocus Pocus.wav
     Pre-gap length  0:00:02.90
     Peak level 78.5 %
     Extraction speed 6.0 X
     Track quality 99.9 %
     Test CRC 5FE2936F
     Copy CRC 5FE2936F
     Accurately ripped (confidence 3)  [F3777CBE]  (AR v1)
     Copy OK
Track 13
     Filename E:\Vuze_BitTorrent_DLs\EAC Rips\Fletcher Henderson And His Orchestra - 1932-1934 (1990) [FLAC] {Chronological Classics 535}\13 - Phanton Fantasie.wav
     Pre-gap length  0:00:03.62
     Peak level 82.1 %
     Extraction speed 7.7 X
     Track quality 100.0 %
     Test CRC D6DA828C
     Copy CRC D6DA828C
     Accurately ripped (confidence 3)  [4C373B36]  (AR v1)
     Copy OK
Track 14
     Filename E:\Vuze_BitTorrent_DLs\EAC Rips\Fletcher Henderson And His Orchestra - 1932-1934 (1990) [FLAC] {Chronological Classics 535}\14 - Harlem Madness.wav
     Pre-gap length  0:00:01.86
     Peak level 72.2 %
     Extraction speed 6.4 X
     Track quality 99.9 %
     Test CRC D8BC5B62
     Copy CRC D8BC5B62
     Accurately ripped (confidence 4)  [730B0F24]  (AR v1)
     Copy OK
Track 15
     Filename E:\Vuze_BitTorrent_DLs\EAC Rips\Fletcher Henderson And His Orchestra - 1932-1934 (1990) [FLAC] {Chronological Classics 535}\15 - Tidal Wave.wav
     Pre-gap length  0:00:01.49
     Peak level 69.6 %
     Extraction speed 5.9 X
     Track quality 99.9 %
     Test CRC 12AA5FC6
     Copy CRC 12AA5FC6
     Accurately ripped (confidence 3)  [F6CDB848]  (AR v1)
     Copy OK
Track 16
     Filename E:\Vuze_BitTorrent_DLs\EAC Rips\Fletcher Henderson And His Orchestra - 1932-1934 (1990) [FLAC] {Chronological Classics 535}\16 - Limehouse Blues.wav
     Pre-gap length  0:00:01.46
     Peak level 91.6 %
     Extraction speed 7.9 X
     Track quality 100.0 %
     Test CRC C3BD3A30
     Copy CRC C3BD3A30
     Accurately ripped (confidence 3)  [7A36B85E]  (AR v1)
     Copy OK
Track 17
     Filename E:\Vuze_BitTorrent_DLs\EAC Rips\Fletcher Henderson And His Orchestra - 1932-1934 (1990) [FLAC] {Chronological Classics 535}\17 - Shangai Shuffle.wav
     Pre-gap length  0:00:03.10
     Peak level 75.8 %
     Extraction speed 6.4 X
     Track quality 99.9 %
     Test CRC 9C34723E
     Copy CRC 9C34723E
     Accurately ripped (confidence 3)  [EEB2B556]  (AR v1)
     Copy OK
Track 18
     Filename E:\Vuze_BitTorrent_DLs\EAC Rips\Fletcher Henderson And His Orchestra - 1932-1934 (1990) [FLAC] {Chronological Classics 535}\18 - Big John's Special.wav
     Pre-gap length  0:00:01.30
     Peak level 84.7 %
     Extraction speed 8.4 X
     Track quality 100.0 %
     Test CRC 98A7678D
     Copy CRC 98A7678D
     Accurately ripped (confidence 3)  [C127BFF8]  (AR v1)
     Copy OK
Track 19
     Filename E:\Vuze_BitTorrent_DLs\EAC Rips\Fletcher Henderson And His Orchestra - 1932-1934 (1990) [FLAC] {Chronological Classics 535}\19 - Happy As The Day Is Long.wav
     Pre-gap length  0:00:01.93
     Peak level 76.2 %
     Extraction speed 8.5 X
     Track quality 100.0 %
     Test CRC F13173AB
     Copy CRC F13173AB
     Accurately ripped (confidence 3)  [48A4E656]  (AR v1)
     Copy OK
Track 20
     Filename E:\Vuze_BitTorrent_DLs\EAC Rips\Fletcher Henderson And His Orchestra - 1932-1934 (1990) [FLAC] {Chronological Classics 535}\20 - Tidal Wave.wav
     Pre-gap length  0:00:01.80
     Peak level 83.4 %
     Extraction speed 6.8 X
     Track quality 99.9 %
     Test CRC 915AE62D
     Copy CRC 915AE62D
     Accurately ripped (confidence 4)  [CFB6F2D0]  (AR v1)
     Copy OK
Track 21
     Filename E:\Vuze_BitTorrent_DLs\EAC Rips\Fletcher Henderson And His Orchestra - 1932-1934 (1990) [FLAC] {Chronological Classics 535}\21 - Down South Camp Meetin'.wav
     Pre-gap length  0:00:02.20
     Peak level 78.1 %
     Extraction speed 6.8 X
     Track quality 99.9 %
     Test CRC 18BC6FD2
     Copy CRC 18BC6FD2
     Accurately ripped (confidence 3)  [A91D2717]  (AR v1)
     Copy OK
Track 22
     Filename E:\Vuze_BitTorrent_DLs\EAC Rips\Fletcher Henderson And His Orchestra - 1932-1934 (1990) [FLAC] {Chronological Classics 535}\22 - Wrappin' It Up.wav
     Pre-gap length  0:00:02.00
     Peak level 74.7 %
     Extraction speed 8.9 X
     Track quality 100.0 %
     Test CRC 96A4EA70
     Copy CRC 96A4EA70
     Accurately ripped (confidence 3)  [ED24607C]  (AR v1)
     Copy OK
Track 23
     Filename E:\Vuze_BitTorrent_DLs\EAC Rips\Fletcher Henderson And His Orchestra - 1932-1934 (1990) [FLAC] {Chronological Classics 535}\23 - Memphis Blues.wav
     Pre-gap length  0:00:03.96
     Peak level 82.3 %
     Extraction speed 8.8 X
     Track quality 100.0 %
     Test CRC 9C1126EB
     Copy CRC 9C1126EB
     Accurately ripped (confidence 3)  [3F5E4E3A]  (AR v1)
     Copy OK
All tracks accurately ripped
No errors occurred
End of status report
==== Log checksum C0E28387ECC2F1C500572A85D7F1EE148F09D5F9CAF35EE1E051218012D0B94A ====
Содержание индексной карты (.CUE)
REM GENRE Jazz
REM DATE 1990
REM DISCID 42107317
REM COMMENT "ExactAudioCopy v1.0b2"
FILE "01. Honeysukle Rose.flac" WAVE
  TRACK 01 AUDIO
    PREGAP 00:00:33
    INDEX 01 00:00:00
  TRACK 02 AUDIO
    INDEX 00 03:11:05
FILE "02. New King Porter Stomp.flac" WAVE
    INDEX 01 00:00:00
  TRACK 03 AUDIO
    INDEX 00 03:06:32
FILE "03. Underneath The Harlem Moon.flac" WAVE
    INDEX 01 00:00:00
  TRACK 04 AUDIO
    INDEX 00 03:13:00
FILE "04. Yeah Man!.flac" WAVE
    INDEX 01 00:00:00
  TRACK 05 AUDIO
    INDEX 00 02:53:38
FILE "05. King Porter's Stomp.flac" WAVE
    INDEX 01 00:00:00
  TRACK 06 AUDIO
    INDEX 00 02:54:15
FILE "06. Queer Notions.flac" WAVE
    INDEX 01 00:00:00
  TRACK 07 AUDIO
    INDEX 00 02:48:28
FILE "07. Can You Take It.flac" WAVE
    INDEX 01 00:00:00
  TRACK 08 AUDIO
    INDEX 00 02:48:30
FILE "08. Queer Notions.flac" WAVE
    INDEX 01 00:00:00
  TRACK 09 AUDIO
    INDEX 00 02:31:67
FILE "09. It's The Talk Of The Town.flac" WAVE
    INDEX 01 00:00:00
  TRACK 10 AUDIO
    INDEX 00 03:31:43
FILE "10. Night Life.flac" WAVE
    INDEX 01 00:00:00
  TRACK 11 AUDIO
    INDEX 00 03:23:42
FILE "11. Nagasaki.flac" WAVE
    INDEX 01 00:00:00
  TRACK 12 AUDIO
    INDEX 00 03:24:67
FILE "12. Hocus Pocus.flac" WAVE
    INDEX 01 00:00:00
  TRACK 13 AUDIO
    INDEX 00 03:14:70
FILE "13. Phantom Fantasie.flac" WAVE
    INDEX 01 00:00:00
  TRACK 14 AUDIO
    INDEX 00 03:14:13
FILE "14. Harlem Madness.flac" WAVE
    INDEX 01 00:00:00
  TRACK 15 AUDIO
    INDEX 00 03:29:25
FILE "15. Tidal Wave.flac" WAVE
    INDEX 01 00:00:00
  TRACK 16 AUDIO
    INDEX 00 03:02:35
FILE "16. Limehouse Blues.flac" WAVE
    INDEX 01 00:00:00
  TRACK 17 AUDIO
    INDEX 00 02:37:25
FILE "17. Shanghai Shuffle.flac" WAVE
    INDEX 01 00:00:00
  TRACK 18 AUDIO
    INDEX 00 03:03:72
FILE "18. Big John's Special.flac" WAVE
    INDEX 01 00:00:00
  TRACK 19 AUDIO
    INDEX 00 02:49:40
FILE "19. Happy As The Day Is Long.flac" WAVE
    INDEX 01 00:00:00
  TRACK 20 AUDIO
    INDEX 00 02:46:02
FILE "20. Tidal Wave.flac" WAVE
    INDEX 01 00:00:00
  TRACK 21 AUDIO
    INDEX 00 03:03:53
FILE "21. Down South Camp Meetin'.flac" WAVE
    INDEX 01 00:00:00
  TRACK 22 AUDIO
    INDEX 00 02:57:20
FILE "22. Wrappin' It Up.flac" WAVE
    INDEX 01 00:00:00
  TRACK 23 AUDIO
    INDEX 00 02:39:60
FILE "23. Memphis Blues.flac" WAVE
    INDEX 01 00:00:00
Download available for power users only.
00:09
457
11:35