Вы используете незарегистрированную версию компонента "Вкладки"!

Поиск

1990 Don Redman And His Orchestra - 1931-1933 {The Chronological Classics 543} [CD]

1990 Don Redman And His Orchestra - 1931-1933 {The Chronological Classics 543} [CD]
Стили:
Издатель (лейбл):
Номер по каталогу:
543
Доп. инфо:

Год издания диска: 1990
Издатель (лейбл): Classics
Номер по каталогу: 543
Аудиокодек: FLAC (*.flac)
Тип рипа: tracks+.cue
Битрейт аудио: lossless
Продолжительность: 71:07
Источник: демоноид
Наличие сканов в содержимом раздачи: да

Лог создания рипа
Exact Audio Copy V0.99 prebeta 4 from 23. January 2008
EAC extraction logfile from 7. February 2008, 7:45
Don Redman / 1931-1933
Used drive  : TSSTcorpDVD+-RW TS-H553A   Adapter: 0  ID: 2
Read mode               : Secure
Utilize accurate stream : Yes
Defeat audio cache      : Yes
Make use of C2 pointers : No
Read offset correction                      : 6
Overread into Lead-In and Lead-Out          : No
Fill up missing offset samples with silence : Yes
Delete leading and trailing silent blocks   : No
Null samples used in CRC calculations       : Yes
Used interface                              : Native Win32 interface for Win NT & 2000
Gap handling                                : Appended to previous track
Used output format              : User Defined Encoder
Selected bitrate                : 768 kBit/s
Quality                         : High
Add ID3 tag                     : No
Command line compressor         : C:\Program Files\Exact Audio Copy\FLAC\FLAC.EXE
Additional command line options : -6 -V -T "ARTIST=%a" -T "TITLE=%t" -T "ALBUM=%g" -T "DATE=%y" -T "TRACKNUMBER=%n" -T "GENRE=%m" -T "COMMENT=%e" %s -o %d
TOC of the extracted CD
     Track |   Start  |  Length  | Start sector | End sector
    ---------------------------------------------------------
        1  |  0:00.32 |  2:50.15 |        32    |    12796
        2  |  2:50.47 |  2:52.45 |     12797    |    25741
        3  |  5:43.17 |  3:16.73 |     25742    |    40514
        4  |  9:00.15 |  2:42.30 |     40515    |    52694
        5  | 11:42.45 |  3:16.05 |     52695    |    67399
        6  | 14:58.50 |  2:55.37 |     67400    |    80561
        7  | 17:54.12 |  2:58.58 |     80562    |    93969
        8  | 20:52.70 |  2:54.17 |     93970    |   107036
        9  | 23:47.12 |  3:19.35 |    107037    |   121996
       10  | 27:06.47 |  2:47.48 |    121997    |   134569
       11  | 29:54.20 |  2:52.55 |    134570    |   147524
       12  | 32:47.00 |  3:07.52 |    147525    |   161601
       13  | 35:54.52 |  2:45.65 |    161602    |   174041
       14  | 38:40.42 |  3:09.68 |    174042    |   188284
       15  | 41:50.35 |  3:08.20 |    188285    |   202404
       16  | 44:58.55 |  2:55.37 |    202405    |   215566
       17  | 47:54.17 |  3:06.33 |    215567    |   229549
       18  | 51:00.50 |  2:43.37 |    229550    |   241811
       19  | 53:44.12 |  2:52.50 |    241812    |   254761
       20  | 56:36.62 |  3:05.68 |    254762    |   268704
       21  | 59:42.55 |  2:31.12 |    268705    |   280041
       22  | 62:13.67 |  3:06.60 |    280042    |   294051
       23  | 65:20.52 |  3:01.40 |    294052    |   307666
       24  | 68:22.17 |  2:45.15 |    307667    |   320056
Track  1
     Filename K:\New Rips\Don Redman - 1931-1933 (1990) [FLAC]\01 - Trouble, Why Pick On Me .wav
     Pre-gap length  0:00:02.42
     Peak level 82.8 %
     Track quality 100.0 %
     Test CRC 756CEFA2
     Copy CRC 756CEFA2
     Track not present in AccurateRip database
     Copy OK
Track  2
     Filename K:\New Rips\Don Redman - 1931-1933 (1990) [FLAC]\02 - Shakin' The African.wav
     Pre-gap length  0:00:03.22
     Peak level 90.4 %
     Track quality 100.0 %
     Test CRC B428E13A
     Copy CRC B428E13A
     Track not present in AccurateRip database
     Copy OK
Track  3
     Filename K:\New Rips\Don Redman - 1931-1933 (1990) [FLAC]\03 - Chant Of The Weed.wav
     Pre-gap length  0:00:03.73
     Peak level 94.2 %
     Track quality 100.0 %
     Test CRC C0F08A1F
     Copy CRC C0F08A1F
     Track not present in AccurateRip database
     Copy OK
Track  4
     Filename K:\New Rips\Don Redman - 1931-1933 (1990) [FLAC]\04 - Shakin' The African.wav
     Pre-gap length  0:00:03.53
     Peak level 84.5 %
     Track quality 100.0 %
     Test CRC 32A1A638
     Copy CRC 32A1A638
     Track not present in AccurateRip database
     Copy OK
Track  5
     Filename K:\New Rips\Don Redman - 1931-1933 (1990) [FLAC]\05 - I Heard.wav
     Pre-gap length  0:00:02.84
     Peak level 75.6 %
     Track quality 100.0 %
     Test CRC 28C72607
     Copy CRC 28C72607
     Track not present in AccurateRip database
     Copy OK
Track  6
     Filename K:\New Rips\Don Redman - 1931-1933 (1990) [FLAC]\06 - How'm I Doin'  (Hey-Hey).wav
     Pre-gap length  0:00:02.57
     Peak level 88.6 %
     Track quality 100.0 %
     Test CRC DBA897BF
     Copy CRC DBA897BF
     Track not present in AccurateRip database
     Copy OK
Track  7
     Filename K:\New Rips\Don Redman - 1931-1933 (1990) [FLAC]\07 - Try Getting A Good Night's Sleep.wav
     Pre-gap length  0:00:03.13
     Peak level 82.8 %
     Track quality 100.0 %
     Test CRC D0E88EE4
     Copy CRC D0E88EE4
     Track not present in AccurateRip database
     Copy OK
Track  8
     Filename K:\New Rips\Don Redman - 1931-1933 (1990) [FLAC]\08 - Got The South In My Soul.wav
     Pre-gap length  0:00:04.30
     Peak level 87.4 %
     Track quality 100.0 %
     Test CRC 67B121B0
     Copy CRC 67B121B0
     Track not present in AccurateRip database
     Copy OK
Track  9
     Filename K:\New Rips\Don Redman - 1931-1933 (1990) [FLAC]\09 - If It's True.wav
     Pre-gap length  0:00:02.69
     Peak level 88.4 %
     Track quality 100.0 %
     Test CRC 4CF8766E
     Copy CRC 4CF8766E
     Track not present in AccurateRip database
     Copy OK
Track 10
     Filename K:\New Rips\Don Redman - 1931-1933 (1990) [FLAC]\10 - It's A Great World After All.wav
     Pre-gap length  0:00:02.93
     Peak level 97.3 %
     Track quality 100.0 %
     Test CRC C5058226
     Copy CRC C5058226
     Track not present in AccurateRip database
     Copy OK
Track 11
     Filename K:\New Rips\Don Redman - 1931-1933 (1990) [FLAC]\11 - You Gave Me Everything But Love.wav
     Pre-gap length  0:00:03.06
     Peak level 78.7 %
     Track quality 100.0 %
     Test CRC 22F074B0
     Copy CRC 22F074B0
     Track not present in AccurateRip database
     Copy OK
Track 12
     Filename K:\New Rips\Don Redman - 1931-1933 (1990) [FLAC]\12 - Tea For Two.wav
     Pre-gap length  0:00:03.46
     Peak level 97.9 %
     Track quality 100.0 %
     Test CRC E7439996
     Copy CRC E7439996
     Track not present in AccurateRip database
     Copy OK
Track 13
     Filename K:\New Rips\Don Redman - 1931-1933 (1990) [FLAC]\13 - Hot And Anxious.wav
     Pre-gap length  0:00:03.42
     Peak level 79.6 %
     Track quality 100.0 %
     Test CRC C884DF18
     Copy CRC C884DF18
     Track not present in AccurateRip database
     Copy OK
Track 14
     Filename K:\New Rips\Don Redman - 1931-1933 (1990) [FLAC]\14 - I Got Rythm.wav
     Pre-gap length  0:00:03.53
     Peak level 99.5 %
     Track quality 99.9 %
     Test CRC B51958CA
     Copy CRC B51958CA
     Track not present in AccurateRip database
     Copy OK
Track 15
     Filename K:\New Rips\Don Redman - 1931-1933 (1990) [FLAC]\15 - Pagan Paradies.wav
     Pre-gap length  0:00:02.46
     Peak level 87.7 %
     Track quality 99.9 %
     Test CRC 12E4DFF2
     Copy CRC 12E4DFF2
     Track not present in AccurateRip database
     Copy OK
Track 16
     Filename K:\New Rips\Don Redman - 1931-1933 (1990) [FLAC]\16 - Two-Time Man.wav
     Pre-gap length  0:00:03.73
     Peak level 98.5 %
     Track quality 100.0 %
     Test CRC 3BEDA204
     Copy CRC 3BEDA204
     Track not present in AccurateRip database
     Copy OK
Track 17
     Filename K:\New Rips\Don Redman - 1931-1933 (1990) [FLAC]\17 - Underneath The Harlem Moon.wav
     Pre-gap length  0:00:03.73
     Peak level 97.9 %
     Track quality 100.0 %
     Test CRC 01562518
     Copy CRC 01562518
     Track not present in AccurateRip database
     Copy OK
Track 18
     Filename K:\New Rips\Don Redman - 1931-1933 (1990) [FLAC]\18 - Ain't I The Lucky One .wav
     Pre-gap length  0:00:03.26
     Peak level 97.0 %
     Track quality 100.0 %
     Test CRC FA767392
     Copy CRC FA767392
     Track not present in AccurateRip database
     Copy OK
Track 19
     Filename K:\New Rips\Don Redman - 1931-1933 (1990) [FLAC]\19 - Doin' What I Please.wav
     Pre-gap length  0:00:03.49
     Peak level 89.7 %
     Track quality 99.9 %
     Test CRC FAEC1AF4
     Copy CRC FAEC1AF4
     Track not present in AccurateRip database
     Copy OK
Track 20
     Filename K:\New Rips\Don Redman - 1931-1933 (1990) [FLAC]\20 - Nagasaki.wav
     Pre-gap length  0:00:02.96
     Peak level 87.8 %
     Track quality 100.0 %
     Test CRC 869882F5
     Copy CRC 869882F5
     Track not present in AccurateRip database
     Copy OK
Track 21
     Filename K:\New Rips\Don Redman - 1931-1933 (1990) [FLAC]\21 - Doin' The New Low-Down (instr.).wav
     Pre-gap length  0:00:03.06
     Peak level 83.7 %
     Track quality 100.0 %
     Test CRC 319B30AC
     Copy CRC 319B30AC
     Track not present in AccurateRip database
     Copy OK
Track 22
     Filename K:\New Rips\Don Redman - 1931-1933 (1990) [FLAC]\22 - Doin' The New Low-Down (vocal).wav
     Pre-gap length  0:00:02.76
     Peak level 86.7 %
     Track quality 100.0 %
     Test CRC 9AB4D842
     Copy CRC 9AB4D842
     Track not present in AccurateRip database
     Copy OK
Track 23
     Filename K:\New Rips\Don Redman - 1931-1933 (1990) [FLAC]\23 - How Ya Feelin' .wav
     Pre-gap length  0:00:03.49
     Peak level 89.4 %
     Track quality 100.0 %
     Test CRC 58D7F41F
     Copy CRC 58D7F41F
     Track not present in AccurateRip database
     Copy OK
Track 24
     Filename K:\New Rips\Don Redman - 1931-1933 (1990) [FLAC]\24 - Shuffle Your Feet-Bandana Babies.wav
     Pre-gap length  0:00:03.86
     Peak level 86.3 %
     Track quality 100.0 %
     Test CRC CF494E1B
     Copy CRC CF494E1B
     Track not present in AccurateRip database
     Copy OK
None of the tracks are present in the AccurateRip database
No errors occurred
End of status report
Содержание индексной карты (.CUE)
REM GENRE Jazz
REM DATE 1990
REM DISCID 5210AB18
REM COMMENT "ExactAudioCopy v0.99pb4"
CATALOG 0000000000000
PERFORMER "Don Redman And His Orchestra"
TITLE "1931-1933 {Chronological Classics, 543}"
FILE "01. Trouble, Why Pick On Me.flac" WAVE
  TRACK 01 AUDIO
    TITLE "Trouble, Why Pick On Me?"
    PERFORMER "Don Redman And His Orchestra"
    PREGAP 00:00:32
    INDEX 01 00:00:00
  TRACK 02 AUDIO
    TITLE "Shakin' The African"
    PERFORMER "Don Redman And His Orchestra"
    INDEX 00 02:46:73
FILE "02. Shakin' The African.flac" WAVE
    INDEX 01 00:00:00
  TRACK 03 AUDIO
    TITLE "Chant Of The Weed"
    PERFORMER "Don Redman And His Orchestra"
    INDEX 00 02:48:65
FILE "03. Chant Of The Weed.flac" WAVE
    INDEX 01 00:00:00
  TRACK 04 AUDIO
    TITLE "Shakin' The African"
    PERFORMER "Don Redman And His Orchestra"
    INDEX 00 03:13:33
FILE "04. Shakin' The African.flac" WAVE
    INDEX 01 00:00:00
  TRACK 05 AUDIO
    TITLE "I Heard"
    PERFORMER "Don Redman And His Orchestra"
    INDEX 00 02:39:42
FILE "05. I Heard.flac" WAVE
    INDEX 01 00:00:00
  TRACK 06 AUDIO
    TITLE "How'm I Doin'? (Hey-Hey)"
    PERFORMER "Don Redman And His Orchestra"
    INDEX 00 03:13:37
FILE "06. How'm I Doin' (Hey-Hey).flac" WAVE
    INDEX 01 00:00:00
  TRACK 07 AUDIO
    TITLE "Try Getting A Good Night's Sleep"
    PERFORMER "Don Redman And His Orchestra"
    INDEX 00 02:52:27
FILE "07. Try Getting A Good Night's Sleep.flac" WAVE
    INDEX 01 00:00:00
  TRACK 08 AUDIO
    TITLE "Got The South In My Soul"
    PERFORMER "Don Redman And His Orchestra"
    INDEX 00 02:54:35
FILE "08. Got The South In My Soul.flac" WAVE
    INDEX 01 00:00:00
  TRACK 09 AUDIO
    TITLE "If It's True"
    PERFORMER "Don Redman And His Orchestra"
    INDEX 00 02:51:40
FILE "09. If It's True.flac" WAVE
    INDEX 01 00:00:00
  TRACK 10 AUDIO
    TITLE "It's A Great World After All"
    PERFORMER "Don Redman And His Orchestra"
    INDEX 00 03:16:40
FILE "10. It's A Great World After All.flac" WAVE
    INDEX 01 00:00:00
  TRACK 11 AUDIO
    TITLE "You Gave Me Everything But Love"
    PERFORMER "Don Redman And His Orchestra"
    INDEX 00 02:44:43
FILE "11. You Gave Me Everything But Love.flac" WAVE
    INDEX 01 00:00:00
  TRACK 12 AUDIO
    TITLE "Tea For Two"
    PERFORMER "Don Redman And His Orchestra"
    INDEX 00 02:49:20
FILE "12. Tea For Two.flac" WAVE
    INDEX 01 00:00:00
  TRACK 13 AUDIO
    TITLE "Hot And Anxious"
    PERFORMER "Don Redman And His Orchestra"
    INDEX 00 03:04:20
FILE "13. Hot And Anxious.flac" WAVE
    INDEX 01 00:00:00
  TRACK 14 AUDIO
    TITLE "I Got Rythm"
    PERFORMER "Don Redman And His Orchestra"
    INDEX 00 02:42:25
FILE "14. I Got Rythm.flac" WAVE
    INDEX 01 00:00:00
  TRACK 15 AUDIO
    TITLE "Pagan Paradies"
    PERFORMER "Don Redman And His Orchestra"
    INDEX 00 03:07:33
FILE "15. Pagan Paradies.flac" WAVE
    INDEX 01 00:00:00
  TRACK 16 AUDIO
    TITLE "Two-Time Man"
    PERFORMER "Don Redman And His Orchestra"
    INDEX 00 03:04:40
FILE "16. Two-Time Man.flac" WAVE
    INDEX 01 00:00:00
  TRACK 17 AUDIO
    TITLE "Underneath The Harlem Moon"
    PERFORMER "Don Redman And His Orchestra"
    INDEX 00 02:51:57
FILE "17. Underneath The Harlem Moon.flac" WAVE
    INDEX 01 00:00:00
  TRACK 18 AUDIO
    TITLE "Ain't I The Lucky One?"
    PERFORMER "Don Redman And His Orchestra"
    INDEX 00 03:03:13
FILE "18. Ain't I The Lucky One.flac" WAVE
    INDEX 01 00:00:00
  TRACK 19 AUDIO
    TITLE "Doin' What I Please"
    PERFORMER "Don Redman And His Orchestra"
    INDEX 00 02:40:00
FILE "19. Doin' What I Please.flac" WAVE
    INDEX 01 00:00:00
  TRACK 20 AUDIO
    TITLE "Nagasaki"
    PERFORMER "Don Redman And His Orchestra"
    INDEX 00 02:49:53
FILE "20. Nagasaki.flac" WAVE
    INDEX 01 00:00:00
  TRACK 21 AUDIO
    TITLE "Doin' The New Low-Down (instr.)"
    PERFORMER "Don Redman And His Orchestra"
    INDEX 00 03:02:63
FILE "21. Doin' The New Low-Down (instr.).flac" WAVE
    INDEX 01 00:00:00
  TRACK 22 AUDIO
    TITLE "Doin' The New Low-Down (vocal)"
    PERFORMER "Don Redman And His Orchestra"
    INDEX 00 02:28:30
FILE "22. Doin' The New Low-Down (vocal).flac" WAVE
    INDEX 01 00:00:00
  TRACK 23 AUDIO
    TITLE "How Ya Feelin'?"
    PERFORMER "Don Redman And His Orchestra"
    INDEX 00 03:03:23
FILE "23. How Ya Feelin'.flac" WAVE
    INDEX 01 00:00:00
  TRACK 24 AUDIO
    TITLE "Shuffle Your Feet / Bandana Babies"
    PERFORMER "Don Redman And His Orchestra"
    INDEX 00 02:57:50
FILE "24. Shuffle Your Feet - Bandana Babies.flac" WAVE
    INDEX 01 00:00:00
Лог проверки качества
[CUETools log; Date: 04.03.2012 12:46:12; Version: 2.0.9]
Pregap length 00:00:32.
[CTDB TOCID: yz3bFFeH051AK.Dq7SW.XqCkjq8-] disk not present in database.
[AccurateRip ID: 003d645e-0427dc00-5210ab18] found.
Track   [ CRC    ] Status
 01     [76b9b6d7] (3/3) Accurately ripped
 02     [7b5d8535] (3/3) Accurately ripped
 03     [d0a2b9e5] (3/3) Accurately ripped
 04     [b3777eab] (3/3) Accurately ripped
 05     [21961310] (3/3) Accurately ripped
 06     [1eb025b1] (3/3) Accurately ripped
 07     [f0dfe791] (3/3) Accurately ripped
 08     [dfb34112] (3/3) Accurately ripped
 09     [28286830] (3/3) Accurately ripped
 10     [b55d7216] (3/3) Accurately ripped
 11     [6f4cc31b] (3/3) Accurately ripped
 12     [8066ebc9] (3/3) Accurately ripped
 13     [10f2fa4e] (3/3) Accurately ripped
 14     [04c27868] (3/3) Accurately ripped
 15     [1eea332f] (3/3) Accurately ripped
 16     [c10145d6] (3/3) Accurately ripped
 17     [6ebe2018] (3/3) Accurately ripped
 18     [1ab7c95d] (3/3) Accurately ripped
 19     [cbe5e2ef] (3/3) Accurately ripped
 20     [1a24ffac] (3/3) Accurately ripped
 21     [9ab9c1a9] (3/3) Accurately ripped
 22     [5ed2255c] (3/3) Accurately ripped
 23     [8ef81040] (3/3) Accurately ripped
 24     [da440d70] (3/3) Accurately ripped
Track Peak [ CRC32  ] [W/O NULL] [  LOG   ]
 --   99,5 [3860AB36] [204D27A4]
 01   82,8 [756CEFA2] [711AAF08]   CRC32
 02   90,4 [B428E13A] [4D49B7A1]   CRC32
 03   94,2 [C0F08A1F] [079F296C]   CRC32
 04   84,5 [32A1A638] [93639405]   CRC32
 05   75,6 [28C72607] [760BD628]   CRC32
 06   88,6 [DBA897BF] [4FD52352]   CRC32
 07   82,8 [D0E88EE4] [B5238E3C]   CRC32
 08   87,4 [67B121B0] [FC128454]   CRC32
 09   88,4 [4CF8766E] [1AB10B21]   CRC32
 10   97,3 [C5058226] [FB6596ED]   CRC32
 11   78,7 [22F074B0] [64D32431]   CRC32
 12   97,9 [E7439996] [90E90990]   CRC32
 13   79,6 [C884DF18] [FE38A212]   CRC32
 14   99,5 [B51958CA] [7999747E]   CRC32
 15   87,7 [12E4DFF2] [047AA197]   CRC32
 16   98,5 [3BEDA204] [9159674A]   CRC32
 17   97,9 [01562518] [6473B784]   CRC32
 18   97,0 [FA767392] [914FAFBB]   CRC32
 19   89,7 [FAEC1AF4] [5CA69E96]   CRC32
 20   87,8 [869882F5] [6FE10DBA]   CRC32
 21   83,7 [319B30AC] [D211C1D9]   CRC32
 22   86,7 [9AB4D842] [21170479]   CRC32
 23   89,4 [58D7F41F] [9CD99240]   CRC32
 24   86,3 [CF494E1B] [F5B7E3EC]   CRC32
Any questions - support@pro-jazz.com. Есть вопросы - support@pro-jazz.com
03:33
163
Нет комментариев. Ваш будет первым!