Поиск

1989 Benny Goodman - Stompin' at the Savoy {Jazz Hour JHR 73518} [CD]

1989 Benny Goodman - Stompin' at the Savoy {Jazz Hour JHR 73518} [CD]
Стили:

Треклист:

01. King Porter Stomp (3:11)
02. Goodbye (3:27)
03. If I Could Be with You (One Hour Tonight) (2:18)
04. Down South Camp Meeting (3:20)
05. Christopher Columbus (3:35)
06. Bugle Call Rag (3:00)
07. Goody Doody (2:32)
08. Stompin' at the Savoy (3:18)
09. He Ain't Got Rhythm (2:45)
10. Sing Me a Swing Song (And Let Me Dance) (2:24)
11. Rool 'Em (3:14)
12. Sing, Sing, Sing (8:46)
13. I Want to Be Happy (2:38)
14. Sugar Foot Stomp (2:51)
15. St. Louis Blues (5:02)
16. Bach Goes to Town (2:44)
17. Topsy (2:59)
18. One O'Clock Jump (3:15)

Жанр: Swing, Big Band
Носитель: CD
Страна-производитель диска (релиза): EU
Год издания: 1989
Издатель (лейбл): Jazz Hour
Номер по каталогу: JHR 73518
Аудиокодек: FLAC (*.flac)
Тип рипа: tracks+.cue
Битрейт аудио: lossless
Продолжительность: 01:01:19
Источник: t0rrent0
Наличие сканов в содержимом раздачи: нет

Лог создания рипа
X Lossless Decoder version 20161007 (149.3)

XLD extraction logfile from 2017-03-15 10:54:56 +0100

Benny Goodman / Stompin' At The Savoy

Used drive : MATSHITA DVD-R   UJ-898 (revision HC10)
Media type : Pressed CD

Ripper mode             : XLD Secure Ripper
Disable audio cache     : OK for the drive with a cache less than 1375KiB
Make use of C2 pointers : NO
Read offset correction  : 102
Max retry count         : 100
Gap status              : Analyzed, Appended (except HTOA)

TOC of the extracted CD
     Track |   Start  |  Length  | Start sector | End sector
    ---------------------------------------------------------
        1  | 00:00:32 | 03:10:45 |        32    |    14326
        2  | 03:11:02 | 03:27:13 |     14327    |    29864
        3  | 06:38:15 | 02:17:60 |     29865    |    40199
        4  | 08:56:00 | 03:20:32 |     40200    |    55231
        5  | 12:16:32 | 03:35:23 |     55232    |    71379
        6  | 15:51:55 | 03:00:17 |     71380    |    84896
        7  | 18:51:72 | 02:31:53 |     84897    |    96274
        8  | 21:23:50 | 03:17:60 |     96275    |   111109
        9  | 24:41:35 | 02:44:45 |    111110    |   123454
       10  | 27:26:05 | 02:24:27 |    123455    |   134281
       11  | 29:50:32 | 03:14:23 |    134282    |   148854
       12  | 33:04:55 | 08:46:25 |    148855    |   188329
       13  | 41:51:05 | 02:38:02 |    188330    |   200181
       14  | 44:29:07 | 02:50:38 |    200182    |   212969
       15  | 47:19:45 | 05:01:47 |    212970    |   235591
       16  | 52:21:17 | 02:43:58 |    235592    |   247874
       17  | 55:05:00 | 02:59:17 |    247875    |   261316
       18  | 58:04:17 | 03:14:58 |    261317    |   275924

AccurateRip Summary (DiscID: 0026a305-020a2b76-040e5f12)
    Track 01 : OK (v1, confidence 3/3)
    Track 02 : OK (v1, confidence 3/3)
    Track 03 : OK (v1, confidence 3/3)
    Track 04 : OK (v1, confidence 3/3)
    Track 05 : OK (v1, confidence 3/3)
    Track 06 : OK (v1, confidence 3/3)
    Track 07 : OK (v1, confidence 3/3)
    Track 08 : OK (v1, confidence 3/3)
    Track 09 : OK (v1, confidence 3/3)
    Track 10 : OK (v1, confidence 3/3)
    Track 11 : OK (v1, confidence 3/3)
    Track 12 : OK (v1, confidence 3/3)
    Track 13 : OK (v1, confidence 3/3)
    Track 14 : OK (v1, confidence 3/3)
    Track 15 : OK (v1, confidence 2/2)
    Track 16 : OK (v1, confidence 3/3)
    Track 17 : OK (v1, confidence 3/3)
    Track 18 : OK (v1, confidence 3/3)
        ->All tracks accurately ripped.

All Tracks
    Album gain               : -4.09 dB
    Peak                     : 0.977234
    Statistics
        Read error                           : 0
        Jitter error (maybe fixed)           : 0
        Retry sector count                   : 0
        Damaged sector count                 : 0

Track 01
    Filename : /XLD/Benny Goodman - Stompin' At The Savoy (1989) [FLAC]/01 - King Porter Stomp.flac
    Pre-gap length : 00:02:32

    Track gain               : -4.20 dB
    Peak                     : 0.887909
    CRC32 hash (test run)    : F6FD1DE5
    CRC32 hash               : F6FD1DE5
    CRC32 hash (skip zero)   : FCB7B85D
    AccurateRip v1 signature : 0B883F34
    AccurateRip v2 signature : 29439ECF
        ->Accurately ripped (v1, confidence 3/3)
    Statistics
        Read error                           : 0
        Jitter error (maybe fixed)           : 0
        Retry sector count                   : 0
        Damaged sector count                 : 0

Track 02
    Filename : /XLD/Benny Goodman - Stompin' At The Savoy (1989) [FLAC]/02 - Goodbye.flac
    Pre-gap length : 00:02:35

    Track gain               : -3.99 dB
    Peak                     : 0.846466
    CRC32 hash (test run)    : 4F267D59
    CRC32 hash               : 4F267D59
    CRC32 hash (skip zero)   : 24009FEC
    AccurateRip v1 signature : C1BC48E3
    AccurateRip v2 signature : 4B122DE8
        ->Accurately ripped (v1, confidence 3/3)
    Statistics
        Read error                           : 0
        Jitter error (maybe fixed)           : 0
        Retry sector count                   : 0
        Damaged sector count                 : 0

Track 03
    Filename : /XLD/Benny Goodman - Stompin' At The Savoy (1989) [FLAC]/03 - If I Could Be With You (One Hour Tonight).flac
    Pre-gap length : 00:03:43

    Track gain               : -4.28 dB
    Peak                     : 0.908691
    CRC32 hash (test run)    : EC137CAC
    CRC32 hash               : EC137CAC
    CRC32 hash (skip zero)   : 9F06B23B
    AccurateRip v1 signature : 2B1EE198
    AccurateRip v2 signature : BB50E217
        ->Accurately ripped (v1, confidence 3/3)
    Statistics
        Read error                           : 0
        Jitter error (maybe fixed)           : 0
        Retry sector count                   : 0
        Damaged sector count                 : 0

Track 04
    Filename : /XLD/Benny Goodman - Stompin' At The Savoy (1989) [FLAC]/04 - Down South Camp Meeting.flac
    Pre-gap length : 00:01:73

    Track gain               : -3.41 dB
    Peak                     : 0.941803
    CRC32 hash (test run)    : 4ED66380
    CRC32 hash               : 4ED66380
    CRC32 hash (skip zero)   : 806C5CF1
    AccurateRip v1 signature : 75CF1593
    AccurateRip v2 signature : BA4B023A
        ->Accurately ripped (v1, confidence 3/3)
    Statistics
        Read error                           : 0
        Jitter error (maybe fixed)           : 0
        Retry sector count                   : 0
        Damaged sector count                 : 0

Track 05
    Filename : /XLD/Benny Goodman - Stompin' At The Savoy (1989) [FLAC]/05 - Christopher Columbus.flac
    Pre-gap length : 00:02:32

    Track gain               : -4.05 dB
    Peak                     : 0.889435
    CRC32 hash (test run)    : AC925AE5
    CRC32 hash               : AC925AE5
    CRC32 hash (skip zero)   : 452B0355
    AccurateRip v1 signature : 5D864465
    AccurateRip v2 signature : 954AAC6E
        ->Accurately ripped (v1, confidence 3/3)
    Statistics
        Read error                           : 0
        Jitter error (maybe fixed)           : 0
        Retry sector count                   : 0
        Damaged sector count                 : 0

Track 06
    Filename : /XLD/Benny Goodman - Stompin' At The Savoy (1989) [FLAC]/06 - Bugle Call Rag.flac
    Pre-gap length : 00:01:55

    Track gain               : -3.97 dB
    Peak                     : 0.898499
    CRC32 hash (test run)    : 5DD73C32
    CRC32 hash               : 5DD73C32
    CRC32 hash (skip zero)   : 56360888
    AccurateRip v1 signature : 3B809CA0
    AccurateRip v2 signature : 94B86C6F
        ->Accurately ripped (v1, confidence 3/3)
    Statistics
        Read error                           : 0
        Jitter error (maybe fixed)           : 0
        Retry sector count                   : 0
        Damaged sector count                 : 0

Track 07
    Filename : /XLD/Benny Goodman - Stompin' At The Savoy (1989) [FLAC]/07 - Goody Doody.flac
    Pre-gap length : 00:00:72

    Track gain               : -3.27 dB
    Peak                     : 0.867096
    CRC32 hash (test run)    : 215ACB69
    CRC32 hash               : 215ACB69
    CRC32 hash (skip zero)   : 56FDB276
    AccurateRip v1 signature : C3300C51
    AccurateRip v2 signature : B7CB6AAE
        ->Accurately ripped (v1, confidence 3/3)
    Statistics
        Read error                           : 0
        Jitter error (maybe fixed)           : 0
        Retry sector count                   : 0
        Damaged sector count                 : 0

Track 08
    Filename : /XLD/Benny Goodman - Stompin' At The Savoy (1989) [FLAC]/08 - Stompin' At The Savoy.flac
    Pre-gap length : 00:02:08

    Track gain               : -3.08 dB
    Peak                     : 0.859222
    CRC32 hash (test run)    : E04E92B0
    CRC32 hash               : E04E92B0
    CRC32 hash (skip zero)   : 36F1F031
    AccurateRip v1 signature : FCF5E79D
    AccurateRip v2 signature : CD4C1297
        ->Accurately ripped (v1, confidence 3/3)
    Statistics
        Read error                           : 0
        Jitter error (maybe fixed)           : 0
        Retry sector count                   : 0
        Damaged sector count                 : 0

Track 09
    Filename : /XLD/Benny Goodman - Stompin' At The Savoy (1989) [FLAC]/09 - He Ain't Got Rhythm.flac
    Pre-gap length : 00:02:58

    Track gain               : -2.69 dB
    Peak                     : 0.803467
    CRC32 hash (test run)    : 4FDD46DC
    CRC32 hash               : 4FDD46DC
    CRC32 hash (skip zero)   : 50020333
    AccurateRip v1 signature : F40B6E7A
    AccurateRip v2 signature : B39CC725
        ->Accurately ripped (v1, confidence 3/3)
    Statistics
        Read error                           : 0
        Jitter error (maybe fixed)           : 0
        Retry sector count                   : 0
        Damaged sector count                 : 0

Track 10
    Filename : /XLD/Benny Goodman - Stompin' At The Savoy (1989) [FLAC]/10 - Sing Me A Swing Song (And Let Me Dance).flac
    Pre-gap length : 00:00:65

    Track gain               : -3.09 dB
    Peak                     : 0.829498
    CRC32 hash (test run)    : 2ADD17FB
    CRC32 hash               : 2ADD17FB
    CRC32 hash (skip zero)   : E96541E4
    AccurateRip v1 signature : 213E54EA
    AccurateRip v2 signature : 56DE2062
        ->Accurately ripped (v1, confidence 3/3)
    Statistics
        Read error                           : 0
        Jitter error (maybe fixed)           : 0
        Retry sector count                   : 0
        Damaged sector count                 : 0

Track 11
    Filename : /XLD/Benny Goodman - Stompin' At The Savoy (1989) [FLAC]/11 - Rool' Em.flac
    Pre-gap length : 00:02:22

    Track gain               : -3.46 dB
    Peak                     : 0.954498
    CRC32 hash (test run)    : 30151553
    CRC32 hash               : 30151553
    CRC32 hash (skip zero)   : F4AF1B38
    AccurateRip v1 signature : B27A1EF4
    AccurateRip v2 signature : 5735B267
        ->Accurately ripped (v1, confidence 3/3)
    Statistics
        Read error                           : 0
        Jitter error (maybe fixed)           : 0
        Retry sector count                   : 0
        Damaged sector count                 : 0

Track 12
    Filename : /XLD/Benny Goodman - Stompin' At The Savoy (1989) [FLAC]/12 - Sing, Sing, Sing.flac
    Pre-gap length : 00:02:40

    Track gain               : -3.99 dB
    Peak                     : 0.906799
    CRC32 hash (test run)    : D9597511
    CRC32 hash               : D9597511
    CRC32 hash (skip zero)   : F2CDD613
    AccurateRip v1 signature : 0993C69A
    AccurateRip v2 signature : 61B26B5A
        ->Accurately ripped (v1, confidence 3/3)
    Statistics
        Read error                           : 0
        Jitter error (maybe fixed)           : 0
        Retry sector count                   : 0
        Damaged sector count                 : 0

Track 13
    Filename : /XLD/Benny Goodman - Stompin' At The Savoy (1989) [FLAC]/13 - I Want To Be Happy.flac
    Pre-gap length : 00:02:58

    Track gain               : -4.20 dB
    Peak                     : 0.935760
    CRC32 hash (test run)    : 6A884B5D
    CRC32 hash               : 6A884B5D
    CRC32 hash (skip zero)   : EED4CD0F
    AccurateRip v1 signature : 898D0303
    AccurateRip v2 signature : 06DDD9E6
        ->Accurately ripped (v1, confidence 3/3)
    Statistics
        Read error                           : 0
        Jitter error (maybe fixed)           : 0
        Retry sector count                   : 0
        Damaged sector count                 : 0

Track 14
    Filename : /XLD/Benny Goodman - Stompin' At The Savoy (1989) [FLAC]/14 - Sugar Foot Stomp.flac
    Pre-gap length : 00:02:00

    Track gain               : -5.99 dB
    Peak                     : 0.936066
    CRC32 hash (test run)    : 6299C237
    CRC32 hash               : 6299C237
    CRC32 hash (skip zero)   : 573647B9
    AccurateRip v1 signature : CCB97819
    AccurateRip v2 signature : 264AB514
        ->Accurately ripped (v1, confidence 3/3)
    Statistics
        Read error                           : 0
        Jitter error (maybe fixed)           : 0
        Retry sector count                   : 0
        Damaged sector count                 : 0

Track 15
    Filename : /XLD/Benny Goodman - Stompin' At The Savoy (1989) [FLAC]/15 - St. Louis Blues.flac
    Pre-gap length : 00:01:68

    Track gain               : -4.73 dB
    Peak                     : 0.971893
    CRC32 hash (test run)    : F1EC408D
    CRC32 hash               : F1EC408D
    CRC32 hash (skip zero)   : 1AC45134
    AccurateRip v1 signature : B8457440
    AccurateRip v2 signature : 564F9AE6
        ->Accurately ripped (v1, confidence 2/2)
    Statistics
        Read error                           : 0
        Jitter error (maybe fixed)           : 0
        Retry sector count                   : 0
        Damaged sector count                 : 0

Track 16
    Filename : /XLD/Benny Goodman - Stompin' At The Savoy (1989) [FLAC]/16 - Bach Goes To Town.flac
    Pre-gap length : 00:02:00

    Track gain               : -4.18 dB
    Peak                     : 0.977234
    CRC32 hash (test run)    : B89BDB64
    CRC32 hash               : B89BDB64
    CRC32 hash (skip zero)   : 5670DA41
    AccurateRip v1 signature : 28A37EC5
    AccurateRip v2 signature : 094687B0
        ->Accurately ripped (v1, confidence 3/3)
    Statistics
        Read error                           : 0
        Jitter error (maybe fixed)           : 0
        Retry sector count                   : 0
        Damaged sector count                 : 0

Track 17
    Filename : /XLD/Benny Goodman - Stompin' At The Savoy (1989) [FLAC]/17 - Topsy.flac
    Pre-gap length : 00:02:18

    Track gain               : -4.81 dB
    Peak                     : 0.977234
    CRC32 hash (test run)    : 6BDEDD72
    CRC32 hash               : 6BDEDD72
    CRC32 hash (skip zero)   : 7553DB18
    AccurateRip v1 signature : E56BDF68
    AccurateRip v2 signature : 32BE6245
        ->Accurately ripped (v1, confidence 3/3)
    Statistics
        Read error                           : 0
        Jitter error (maybe fixed)           : 0
        Retry sector count                   : 0
        Damaged sector count                 : 0

Track 18
    Filename : /XLD/Benny Goodman - Stompin' At The Savoy (1989) [FLAC]/18 - One O'Clock Jump.flac
    Pre-gap length : 00:02:52

    Track gain               : -4.20 dB
    Peak                     : 0.966156
    CRC32 hash (test run)    : 7D77F351
    CRC32 hash               : 7D77F351
    CRC32 hash (skip zero)   : CB1C9290
    AccurateRip v1 signature : 549EE4F1
    AccurateRip v2 signature : 210DDA39
        ->Accurately ripped (v1, confidence 3/3)
    Statistics
        Read error                           : 0
        Jitter error (maybe fixed)           : 0
        Retry sector count                   : 0
        Damaged sector count                 : 0

No errors occurred

End of status report

-----BEGIN XLD SIGNATURE-----
RXnQBOMnoduUChoWVqXVi2e3uxuF6tbxUnBAxXki65Bu9mzX_PscNlxT4winn6AshirObP_bErOIdVjjaTTk3Ob9OVsiquiWNYe1HO8
-----END XLD SIGNATURE-----
Содержание индексной карты (.CUE)
TITLE "Stompin' at the Savoy"
PERFORMER "Benny Goodman"
REM GENRE "Jazz"
REM DATE "1989"
REM DISCID 040E5F12
REM REPLAYGAIN_ALBUM_GAIN -4.09 dB
REM REPLAYGAIN_ALBUM_PEAK 0.977234
FILE "01 - King Porter Stomp.flac" WAVE
  TRACK 01 AUDIO
    TITLE "King Porter Stomp"
    REM REPLAYGAIN_TRACK_GAIN -4.20 dB
    REM REPLAYGAIN_TRACK_PEAK 0.887909
    PREGAP 00:00:32
    INDEX 01 00:00:00
  TRACK 02 AUDIO
    TITLE "Goodbye"
    REM REPLAYGAIN_TRACK_GAIN -3.99 dB
    REM REPLAYGAIN_TRACK_PEAK 0.846466
    INDEX 00 03:08:10
FILE "02 - Goodbye.flac" WAVE
    INDEX 01 00:00:00
  TRACK 03 AUDIO
    TITLE "If I Could Be with You (One Hour Tonight)"
    REM REPLAYGAIN_TRACK_GAIN -4.28 dB
    REM REPLAYGAIN_TRACK_PEAK 0.908691
    INDEX 00 03:23:45
FILE "03 - If I Could Be with You (One Hour Tonight).flac" WAVE
    INDEX 01 00:00:00
  TRACK 04 AUDIO
    TITLE "Down South Camp Meeting"
    REM REPLAYGAIN_TRACK_GAIN -3.41 dB
    REM REPLAYGAIN_TRACK_PEAK 0.941803
    INDEX 00 02:15:62
FILE "04 - Down South Camp Meeting.flac" WAVE
    INDEX 01 00:00:00
  TRACK 05 AUDIO
    TITLE "Christopher Columbus"
    REM REPLAYGAIN_TRACK_GAIN -4.05 dB
    REM REPLAYGAIN_TRACK_PEAK 0.889435
    INDEX 00 03:18:00
FILE "05 - Christopher Columbus.flac" WAVE
    INDEX 01 00:00:00
  TRACK 06 AUDIO
    TITLE "Bugle Call Rag"
    REM REPLAYGAIN_TRACK_GAIN -3.97 dB
    REM REPLAYGAIN_TRACK_PEAK 0.898499
    INDEX 00 03:33:43
FILE "06 - Bugle Call Rag.flac" WAVE
    INDEX 01 00:00:00
  TRACK 07 AUDIO
    TITLE "Goody Doody"
    REM REPLAYGAIN_TRACK_GAIN -3.27 dB
    REM REPLAYGAIN_TRACK_PEAK 0.867096
    INDEX 00 02:59:20
FILE "07 - Goody Doody.flac" WAVE
    INDEX 01 00:00:00
  TRACK 08 AUDIO
    TITLE "Stompin' at the Savoy"
    REM REPLAYGAIN_TRACK_GAIN -3.08 dB
    REM REPLAYGAIN_TRACK_PEAK 0.859222
    INDEX 00 02:29:45
FILE "08 - Stompin' at the Savoy.flac" WAVE
    INDEX 01 00:00:00
  TRACK 09 AUDIO
    TITLE "He Ain't Got Rhythm"
    REM REPLAYGAIN_TRACK_GAIN -2.69 dB
    REM REPLAYGAIN_TRACK_PEAK 0.803467
    INDEX 00 03:15:02
FILE "09 - He Ain't Got Rhythm.flac" WAVE
    INDEX 01 00:00:00
  TRACK 10 AUDIO
    TITLE "Sing Me a Swing Song (And Let Me Dance)"
    REM REPLAYGAIN_TRACK_GAIN -3.09 dB
    REM REPLAYGAIN_TRACK_PEAK 0.829498
    INDEX 00 02:43:55
FILE "10 - Sing Me a Swing Song (And Let Me Dance).flac" WAVE
    INDEX 01 00:00:00
  TRACK 11 AUDIO
    TITLE "Rool 'Em"
    REM REPLAYGAIN_TRACK_GAIN -3.46 dB
    REM REPLAYGAIN_TRACK_PEAK 0.954498
    INDEX 00 02:22:05
FILE "11 - Rool 'Em.flac" WAVE
    INDEX 01 00:00:00
  TRACK 12 AUDIO
    TITLE "Sing, Sing, Sing"
    REM REPLAYGAIN_TRACK_GAIN -3.99 dB
    REM REPLAYGAIN_TRACK_PEAK 0.906799
    INDEX 00 03:11:58
FILE "12 - Sing, Sing, Sing.flac" WAVE
    INDEX 01 00:00:00
  TRACK 13 AUDIO
    TITLE "I Want to Be Happy"
    REM REPLAYGAIN_TRACK_GAIN -4.20 dB
    REM REPLAYGAIN_TRACK_PEAK 0.935760
    INDEX 00 08:43:42
FILE "13 - I Want to Be Happy.flac" WAVE
    INDEX 01 00:00:00
  TRACK 14 AUDIO
    TITLE "Sugar Foot Stomp"
    REM REPLAYGAIN_TRACK_GAIN -5.99 dB
    REM REPLAYGAIN_TRACK_PEAK 0.936066
    INDEX 00 02:36:02
FILE "14 - Sugar Foot Stomp.flac" WAVE
    INDEX 01 00:00:00
  TRACK 15 AUDIO
    TITLE "St. Louis Blues"
    REM REPLAYGAIN_TRACK_GAIN -4.73 dB
    REM REPLAYGAIN_TRACK_PEAK 0.971893
    INDEX 00 02:48:45
FILE "15 - St. Louis Blues.flac" WAVE
    INDEX 01 00:00:00
  TRACK 16 AUDIO
    TITLE "Bach Goes to Town"
    REM REPLAYGAIN_TRACK_GAIN -4.18 dB
    REM REPLAYGAIN_TRACK_PEAK 0.977234
    INDEX 00 04:59:47
FILE "16 - Bach Goes to Town.flac" WAVE
    INDEX 01 00:00:00
  TRACK 17 AUDIO
    TITLE "Topsy"
    REM REPLAYGAIN_TRACK_GAIN -4.81 dB
    REM REPLAYGAIN_TRACK_PEAK 0.977234
    INDEX 00 02:41:40
FILE "17 - Topsy.flac" WAVE
    INDEX 01 00:00:00
  TRACK 18 AUDIO
    TITLE "One O'Clock Jump"
    REM REPLAYGAIN_TRACK_GAIN -4.20 dB
    REM REPLAYGAIN_TRACK_PEAK 0.966156
    INDEX 00 02:56:40
FILE "18 - One O'Clock Jump.flac" WAVE
    INDEX 01 00:00:00
Лог проверки качества
[CUETools log; Date: 13.02.2019 19:48:50; Version: 2.1.6]
Pregap length 00:00:32.
[CTDB TOCID: T4X54jIlnMRAGLFb9kEfPoVSpGg-] found.
Track | CTDB Status
  1   | (12/12) Accurately ripped
  2   | (12/12) Accurately ripped
  3   | (12/12) Accurately ripped
  4   | (12/12) Accurately ripped
  5   | (12/12) Accurately ripped
  6   | (11/12) Accurately ripped
  7   | (12/12) Accurately ripped
  8   | (12/12) Accurately ripped
  9   | (12/12) Accurately ripped
 10   | (12/12) Accurately ripped
 11   | (12/12) Accurately ripped
 12   | (12/12) Accurately ripped
 13   | (11/12) Accurately ripped
 14   | (12/12) Accurately ripped
 15   | (11/12) Accurately ripped
 16   | (12/12) Accurately ripped
 17   | (12/12) Accurately ripped
 18   | (12/12) Accurately ripped
[AccurateRip ID: 0026a305-020a2b76-040e5f12] found.
Track   [  CRC   |   V2   ] Status
 01     [0b883f34|29439ecf] (3+2/5) Accurately ripped
 02     [c1bc48e3|4b122de8] (3+2/5) Accurately ripped
 03     [2b1ee198|bb50e217] (3+2/5) Accurately ripped
 04     [75cf1593|ba4b023a] (3+2/5) Accurately ripped
 05     [5d864465|954aac6e] (3+2/5) Accurately ripped
 06     [3b809ca0|94b86c6f] (3+2/5) Accurately ripped
 07     [c3300c51|b7cb6aae] (3+2/5) Accurately ripped
 08     [fcf5e79d|cd4c1297] (3+2/5) Accurately ripped
 09     [f40b6e7a|b39cc725] (3+2/5) Accurately ripped
 10     [213e54ea|56de2062] (3+2/5) Accurately ripped
 11     [b27a1ef4|5735b267] (3+2/5) Accurately ripped
 12     [0993c69a|61b26b5a] (3+2/5) Accurately ripped
 13     [898d0303|06ddd9e6] (3+2/5) Accurately ripped
 14     [ccb97819|264ab514] (3+2/5) Accurately ripped
 15     [b8457440|564f9ae6] (2+2/4) Accurately ripped
 16     [28a37ec5|094687b0] (3+2/5) Accurately ripped
 17     [e56bdf68|32be6245] (3+2/5) Accurately ripped
 18     [549ee4f1|210dda39] (3+2/5) Accurately ripped

Track Peak [ CRC32  ] [W/O NULL]
 --   97,7 [B3618469] [FAAA5505]
 01   88,7 [F6FD1DE5] [FCB7B85D]
 02   84,6 [4F267D59] [24009FEC]
 03   90,8 [EC137CAC] [9F06B23B]
 04   94,1 [4ED66380] [806C5CF1]
 05   88,9 [AC925AE5] [452B0355]
 06   89,8 [5DD73C32] [56360888]
 07   86,7 [215ACB69] [56FDB276]
 08   85,9 [E04E92B0] [36F1F031]
 09   80,3 [4FDD46DC] [50020333]
 10   82,9 [2ADD17FB] [E96541E4]
 11   95,4 [30151553] [F4AF1B38]
 12   90,6 [D9597511] [F2CDD613]
 13   93,5 [6A884B5D] [EED4CD0F]
 14   93,6 [6299C237] [573647B9]
 15   97,1 [F1EC408D] [1AC45134]
 16   97,7 [B89BDB64] [5670DA41]
 17   97,7 [6BDEDD72] [7553DB18]
 18   96,6 [7D77F351] [CB1C9290]
По всем вопросам пишите личное сообщение пользователю M0p94ok.
19:26
531
Нет комментариев. Ваш будет первым!