Поиск

1986 Thelonious Monk - The Complete Riverside Recordings (15CD Box Set) {Riverside 15RCD-022-2}

1986 Thelonious Monk - The Complete Riverside Recordings (15CD Box Set) {Riverside 15RCD-022-2}
Страна-производитель диска (релиза):
USA
Дата записи диска:
21 июля 1955 - 21 апреля 1961
Дата издания диска:
1986
Издатель (лейбл):
Номер по каталогу:
15RCD-022-2
Носитель:
CD
Битрейт аудио:
lossless
Аудиокодек:
APE (*.ape)
Тип рипа:
image+.cue
Время звучания:
16:15:02
Наличие сканов:
  • да
Релизёр (источник):
nirvan0id
Треклист:
1.1 It Don't Mean a Thing (If It Ain't Got That Swing) 4:39
1.2 Sophisticated Lady 4:28
1.3 I Got It Bad (And That Ain't Good) 5:53
1.4 Black and Tan Fantasy 3:25
1.5 Mood Indigo 3:14
1.6 I Let a Song Go Out of My Heart 5:41
1.7 Solitude 3:43
1.8 Caravan 5:55
1.9 Liza, All the Clouds'll Roll Away 3:11
1.10 Memories of You 4:17
1.11 Honeysuckle Rose 5:31
1.12 Darn That Dream 6:29
1.13 Tea for Two 5:55
2.1 You Are Too Beautiful 4:55
2.2 Just You, Just Me 7:58
2.3 Ba-Lue Bolivar Ba-Lues-Aer 13:24
2.4 Pannonica (Opening) 2:35
2.5 Pannonica 8:50
2.6 Brilliant Corners 7:46
2.7 Bemsha Swing 7:50
2.8 I Surrender, Dear 5:31
3.1 I Don't Stand a Ghost of a Chance With You [Take 5] 4:12
3.2 I Don't Stand a Ghost of a Chance With You 4:21
3.3 I Should Care [Take 1] 3:28
3.4 I Should Care [Take 2] 3:19
3.5 I Should Care 3:25
3.6 'Round Midnight (In Progress) 21:55
3.7 'Round Midnight 6:41
3.8 April in Paris 3:52
3.9 I'm Getting Sentimental Over You 4:04
3.10 Monk's Mood (False Start) 0:57
3.11 Monk's Mood 7:52
4.1 Functional [Take 1 - Alternate] 9:43
4.2 Functional 9:18
4.3 All Alone 4:51
4.4 Crepuscule With Nellie [Take 1] 4:34
4.5 Crepuscule With Nellie (Breakdown) 1:01
4.6 Blues for Tomorrow 13:32
4.7 Off Minor [Take 4 - Alternate] 5:14
4.8 Off Minor 5:08
4.9 Abide With Me 0:53
4.10 Crepuscule With Nellie [Takes 4/5] 4:46
4.11 Crepuscule With Nellie 4:39
5.1 Epistrophy (Fragment) 1:46
5.2 Epistrophy 10:45
5.3 Well, You Needn't (Opening) 1:25
5.4 Well, You Needn't 11:23
5.5 Ruby, My Dear (With Coleman Hawkins) 5:25
5.6 Ruby, My Dear (With John Coltrane) 6:19
5.7 Nutty 6:36
5.8 Trinkle, Tinkle 6:39
5.9 Straight, No Chaser [Take 1 - Alternate] 5:27
5.10 Straight, No Chaser 6:58
5.11 Rhythm-a-Ning 5:19
6.1 I Mean You [Take 1 - Alternate] 6:22
6.2 I Mean You [Take 2 - Alternate] 6:31
6.3 I Mean You 6:51
6.4 'Round Midnight 8:27
6.5 Decidedly [Stereo Take] 5:52
6.6 Decidedly [Mono Take] 6:35
6.7 Sweet and Lovely 7:15
6.8 Coming on the Hudson 6:03
6.9 In Orbit 4:04
6.10 One Foot in the Gutter 7:29
7.1 Trust in Me 4:31
7.2 Let's Cool One 4:55
7.3 Pea Eye 4:29
7.4 Argentia 6:12
7.5 Moonlight Fiesta 2:34
7.6 Buck's Business 3:22
7.7 Flugelin' the Blues 7:01
7.8 Very Near Blue 3:04
7.9 Evidence 10:15
7.10 Blues Five Spot 9:54
7.11 In Walked Bud / Epistrophy (Theme) 10:57
8.1 [unidentified solo piano] 1:54
8.2 'Round Midnight 6:15
8.3 Bye-Ya / Epistrophy (Theme) 11:54
8.4 Light Blue 5:14
8.5 Coming on the Hudson 5:23
8.6 Rhythm-a-Ning 9:28
8.7 Just a Gigolo 2:08
8.8 Blue Monk 8:29
8.9 Evidence 8:45
8.10 Epistrophy (Theme) 1:07
9.1 Nutty 5:23
9.2 Blues Five Spot 8:12
9.3 Let's Cool One 9:15
9.4 In Walked Bud 11:20
9.5 Misterioso 10:47
9.6 Epistrophy (Theme - #2) 1:04
9.7 In Walked Bud 7:08
9.8 Blue Monk 8:21
10.1 Rhythm-a-Ning 6:52
10.2 Monk's Mood 10:21
10.3 Friday the 13th 9:30
10.4 Little Rootie Tootie 8:52
10.5 Off Minor 7:50
10.6 Thelonious 3:03
10.7 Crepuscule With Nellie 4:50
10.8 Little Rootie Tootie (Encore) 8:30
11.1 Played Twice [Take 1 - 2nd Alternate] 6:57
11.2 Played Twice [Take 2 - Alternate] 7:54
11.3 Played Twice 8:00
11.4 Straight, No Chaser 9:22
11.5 Ask Me Now 10:47
11.6 I Mean You 9:49
11.7 Jackie-ing 6:07
11.8 Round Lights 3:36
11.9 Pannonica 3:52
11.10 Blue Monk 3:43
12.1 Ruby, My Dear 3:59
12.2 There's Danger in Your Eyes, Cherie [Take 1 - Alternate] 4:05
12.3 There's Danger in Your Eyes, Cherie 4:20
12.4 Everything Happens to Me 5:39
12.5 Reflections 5:07
12.6 Remember 2:43
12.7 Bluehawk 3:38
12.8 You Took the Words Right Out of My Heart 4:02
12.9 San Francisco Holiday 8:50
12.10 Just You, Just Me 7:09
12.11 'Round Midnight 7:53
12.12 San Francisco Holiday [Take 2 - Alternate] 8:31
13.1 I'm Getting Sentimental Over You 6:12
13.2 Evidence 7:07
13.3 Epistrophy (Theme) 1:02
13.4 Epistrophy 6:39
13.5 Four in One [Take 1] 7:34
13.6 Let's Call This 8:34
13.7 'Round Midnight 12:05
13.8 San Francisco Holiday (Worry Later) 9:09
13.9 Four in One 8:42
13.10 Epistrophy (Theme) 1:15
14.1 Well, You Needn't 11:30
14.2 Crespuscule With Nellie 2:39
14.3 Jackie-ing 10:11
14.4 Body and Soul 2:47
14.5 Off Minor 11:41
14.6 April in Paris 1:19
14.7 I Mean You 11:02
14.8 Rhythm-a-Ning 10:37
14.9 Just a Gigolo 1:45
15.1 Hackensack 9:46
15.2 Epistrophy 6:12
15.3 I'm Getting Sentimental Over You 8:33
15.4 Jackie-ing 4:53
15.5 Body and Soul 4:48
15.6 Straight, No Chaser 9:03
15.7 Crepuscule With Nellie 2:42
15.8 Bemsha Swing 6:56
15.9 San Francisco Holiday 5:57
15.10 Rhythm-a-Ning 5:47
15.11 Epistrophy 5:03
Состав:
  • Ahmed Abdul-Malik Bass
  • Pepper Adams Sax (Baritone)
  • Eddie Bert Trombone
  • Art Blakey Drums
  • Donald Byrd Trumpet
  • Paul Chambers Bass
  • John Coltrane Sax (Tenor)
  • Ray Copeland Trumpet
  • Frankie Dunlop Drums
  • Ray Fowler Engineer
  • Joe Gordon Trumpet
  • Johnny Griffin Sax (Tenor)
  • Gigi Gryce Composer, Sax (Alto)
  • Reice Hamel Engineer
  • Coleman Hawkins Composer, Sax (Tenor)
  • Roy Haynes Drums
  • Ernie Henry Sax (Alto)
  • Billy Higgins Drums
  • Jack Higgins Engineer
  • Philly Joe Jones Drums
  • Sam Jones Bass
  • Thad Jones Cornet
  • Orrin Keepnews Liner Notes, Producer
  • Danny Kopelson Re-Recording Engineer, Reprocessing
  • Harold Land Sax (Tenor)
  • Shelly Manne Drums
  • Jay McAllister Tuba
  • Thelonious Monk Celeste, Composer, Piano
  • Gerry Mulligan Composer, Sax (Baritone)
  • Robert «Brother Ah» Northern French Horn
  • John Ore Bass
  • Oscar Pettiford Bass
  • Max Roach Drums, Timpani
  • Sonny Rollins Sax (Tenor)
  • Charlie Rouse Sax (Tenor)
  • Art Taylor Drums
  • Clark Terry Composer, Flugelhorn, Trumpet
  • Rudy Van Gelder Engineer
  • Wilbur Ware Bass
  • Shadow Wilson Drums
  • Phil Woods Sax (Alto)
<spoiler title="EAC logs"><spoiler title="CD 01"><pre>Exact Audio Copy V0.99 prebeta 3 from 28. July 2007
Отчёт EAC об извлечении, выполненном 14. декабря 2007, 17:19
Thelonious Monk / The Complete Riverside Recordings (disc 1)
Дисковод: _NEC DVD_RW ND-2510A Adapter: 3 ID: 1
Режим чтения : Достоверность
Использование точного потока : Да
Отключение кэша аудио : Да
Использование указателей C2 : Нет
Коррекция смещения при чтении : 48
Способность читать области Lead-in и Lead-out : Нет
Заполнение пропущенных сэмплов тишиной : Да
Удаление блоков с тишиной в начале и конце : Нет
При вычислениях CRC использовались нулевые сэмплы : Нет
Интерфейс : Установленный внешний ASPI-интерфейс
Выходной формат : Monkey's Audio (без потерь)
Выбранный битрейт : High Lossless Compression
Качество : Высокий
Добавление ID3-тэга : Да
Утилита сжатия : C:\Program Files\Monkey's Audio\Monkey's Audio.exe
TOC извлечённого CD
Трек | Старт | Длительность | Начальный сектор | Конечный сектор
---------------------------------------------------------------------
1 | 0:00.00 | 4:38.57 | 0 | 20906
2 | 4:38.57 | 4:28.60 | 20907 | 41066
3 | 9:07.42 | 5:53.55 | 41067 | 67596
4 | 15:01.22 | 3:26.50 | 67597 | 83096
5 | 18:27.72 | 3:14.23 | 83097 | 97669
6 | 21:42.20 | 5:41.05 | 97670 | 123249
7 | 27:23.25 | 3:43.57 | 123250 | 140031
8 | 31:07.07 | 5:57.35 | 140032 | 166841
9 | 37:04.42 | 3:12.18 | 166842 | 181259
10 | 40:16.60 | 4:17.37 | 181260 | 200571
11 | 44:34.22 | 5:33.25 | 200572 | 225571
12 | 50:07.47 | 6:31.25 | 225572 | 254921
13 | 56:38.72 | 5:55.48 | 254922 | 281594
Характеристики диапазона извлечения и сообщения об ошибках
Выбранный диапазон
Имя файла M:\Music\Jazz\Thelonious.Monk\The.Complete.Riverside.Recordings\The.Complete.Riverside.Recordings.CD01\Thelonious Monk - The Complete Riverside Recordings (disc 1).wav
Пиковый уровень 100.0 %
Качество диапазона 99.8 %
CRC копии 105261F5
Копирование... OK
Ошибок не произошло
Конец отчёта
Exact Audio Copy V0.99 prebeta 3 from 28. July 2007
Отчёт EAC об извлечении, выполненном 14. декабря 2007, 16:19
Thelonious Monk / The Complete Riverside Recordings (disc 2)
Дисковод: _NEC DVD_RW ND-2510A Adapter: 3 ID: 1
Режим чтения : Достоверность
Использование точного потока : Да
Отключение кэша аудио : Да
Использование указателей C2 : Нет
Коррекция смещения при чтении : 48
Способность читать области Lead-in и Lead-out : Нет
Заполнение пропущенных сэмплов тишиной : Да
Удаление блоков с тишиной в начале и конце : Нет
При вычислениях CRC использовались нулевые сэмплы : Нет
Интерфейс : Установленный внешний ASPI-интерфейс
Выходной формат : Monkey's Audio (без потерь)
Выбранный битрейт : High Lossless Compression
Качество : Высокий
Добавление ID3-тэга : Да
Утилита сжатия : C:\Program Files\Monkey's Audio\Monkey's Audio.exe
TOC извлечённого CD
Трек | Старт | Длительность | Начальный сектор | Конечный сектор
---------------------------------------------------------------------
1 | 0:00.00 | 4:56.12 | 0 | 22211
2 | 4:56.12 | 8:00.33 | 22212 | 58244
3 | 12:56.45 | 13:25.60 | 58245 | 118679
4 | 26:22.30 | 2:36.50 | 118680 | 130429
5 | 28:59.05 | 8:52.12 | 130430 | 170341
6 | 37:51.17 | 7:49.03 | 170342 | 205519
7 | 45:40.20 | 7:53.27 | 205520 | 241021
8 | 53:33.47 | 5:32.35 | 241022 | 265956
Характеристики диапазона извлечения и сообщения об ошибках
Выбранный диапазон
Имя файла M:\Music\Jazz\Thelonious.Monk\The.Complete.Riverside.Recordings\The.Complete.Riverside.Recordings.CD02\Thelonious Monk - The Complete Riverside Recordings (disc 2).wav
Пиковый уровень 100.0 %
Качество диапазона 99.9 %
CRC копии A99ECEB9
Копирование... OK
Ошибок не произошло
Конец отчёта
Exact Audio Copy V0.99 prebeta 3 from 28. July 2007
Отчёт EAC об извлечении, выполненном 14. декабря 2007, 15:50
Thelonious Monk / The Complete Riverside Recordings (disc 3)
Дисковод: _NEC DVD_RW ND-2510A Adapter: 3 ID: 1
Режим чтения : Достоверность
Использование точного потока : Да
Отключение кэша аудио : Да
Использование указателей C2 : Нет
Коррекция смещения при чтении : 48
Способность читать области Lead-in и Lead-out : Нет
Заполнение пропущенных сэмплов тишиной : Да
Удаление блоков с тишиной в начале и конце : Нет
При вычислениях CRC использовались нулевые сэмплы : Нет
Интерфейс : Установленный внешний ASPI-интерфейс
Выходной формат : Monkey's Audio (без потерь)
Выбранный битрейт : High Lossless Compression
Качество : Высокий
Добавление ID3-тэга : Да
Утилита сжатия : C:\Program Files\Monkey's Audio\Monkey's Audio.exe
TOC извлечённого CD
Трек | Старт | Длительность | Начальный сектор | Конечный сектор
---------------------------------------------------------------------
1 | 0:00.00 | 4:14.02 | 0 | 19051
2 | 4:14.02 | 4:23.33 | 19052 | 38809
3 | 8:37.35 | 3:30.52 | 38810 | 54611
4 | 12:08.12 | 3:21.73 | 54612 | 69759
5 | 15:30.10 | 3:15.57 | 69760 | 84441
6 | 18:45.67 | 21:57.05 | 84442 | 183221
7 | 40:42.72 | 6:42.53 | 183222 | 213424
8 | 47:25.50 | 3:53.42 | 213425 | 230941
9 | 51:19.17 | 4:06.13 | 230942 | 249404
10 | 55:25.30 | 0:59.65 | 249405 | 253894
11 | 56:25.20 | 7:53.25 | 253895 | 289394
Характеристики диапазона извлечения и сообщения об ошибках
Выбранный диапазон
Имя файла M:\Music\Jazz\Thelonious.Monk\The.Complete.Riverside.Recordings\The.Complete.Riverside.Recordings.CD03\Thelonious Monk - The Complete Riverside Recordings (disc 3).wav
Пиковый уровень 100.0 %
Качество диапазона 99.9 %
CRC копии 1FB45385
Копирование... OK
Ошибок не произошло
Конец отчёта
Exact Audio Copy V0.99 prebeta 3 from 28. July 2007
Отчёт EAC об извлечении, выполненном 14. декабря 2007, 5:31
Thelonious Monk / The Complete Riverside Recordings (disc 4)
Дисковод: _NEC DVD_RW ND-2510A Adapter: 3 ID: 1
Режим чтения : Достоверность
Использование точного потока : Да
Отключение кэша аудио : Да
Использование указателей C2 : Нет
Коррекция смещения при чтении : 48
Способность читать области Lead-in и Lead-out : Нет
Заполнение пропущенных сэмплов тишиной : Да
Удаление блоков с тишиной в начале и конце : Нет
При вычислениях CRC использовались нулевые сэмплы : Нет
Интерфейс : Установленный внешний ASPI-интерфейс
Выходной формат : Monkey's Audio (без потерь)
Выбранный битрейт : High Lossless Compression
Качество : Высокий
Добавление ID3-тэга : Да
Утилита сжатия : C:\Program Files\Monkey's Audio\Monkey's Audio.exe
TOC извлечённого CD
Трек | Старт | Длительность | Начальный сектор | Конечный сектор
---------------------------------------------------------------------
1 | 0:00.00 | 9:44.32 | 0 | 43831
2 | 9:44.32 | 9:20.30 | 43832 | 85861
3 | 19:04.62 | 4:53.00 | 85862 | 107836
4 | 23:57.62 | 4:34.70 | 107837 | 128456
5 | 28:32.57 | 1:02.43 | 128457 | 133149
6 | 29:35.25 | 13:33.57 | 133150 | 194181
7 | 43:09.07 | 5:15.40 | 194182 | 217846
8 | 48:24.47 | 5:09.68 | 217847 | 241089
9 | 53:34.40 | 0:55.02 | 241090 | 245216
10 | 54:29.42 | 4:47.48 | 245217 | 266789
11 | 59:17.15 | 4:40.27 | 266790 | 287816
Характеристики диапазона извлечения и сообщения об ошибках
Выбранный диапазон
Имя файла M:\Music\Jazz\Thelonious.Monk\The.Complete.Riverside.Recordings\The.Complete.Riverside.Recordings.CD04\Thelonious Monk - The Complete Riverside Recordings (disc 4).wav
Пиковый уровень 100.0 %
Качество диапазона 100.0 %
CRC копии 5C32C838
Копирование... OK
Ошибок не произошло
Конец отчёта
Exact Audio Copy V0.99 prebeta 3 from 28. July 2007
Отчёт EAC об извлечении, выполненном 14. декабря 2007, 16:43
Thelonious Monk / The Complete Riverside Recordings (disc 5)
Дисковод: _NEC DVD_RW ND-2510A Adapter: 3 ID: 1
Режим чтения : Достоверность
Использование точного потока : Да
Отключение кэша аудио : Да
Использование указателей C2 : Нет
Коррекция смещения при чтении : 48
Способность читать области Lead-in и Lead-out : Нет
Заполнение пропущенных сэмплов тишиной : Да
Удаление блоков с тишиной в начале и конце : Нет
При вычислениях CRC использовались нулевые сэмплы : Нет
Интерфейс : Установленный внешний ASPI-интерфейс
Выходной формат : Monkey's Audio (без потерь)
Выбранный битрейт : High Lossless Compression
Качество : Высокий
Добавление ID3-тэга : Да
Утилита сжатия : C:\Program Files\Monkey's Audio\Monkey's Audio.exe
TOC извлечённого CD
Трек | Старт | Длительность | Начальный сектор | Конечный сектор
---------------------------------------------------------------------
1 | 0:00.00 | 1:46.37 | 0 | 7986
2 | 1:46.37 | 10:45.70 | 7987 | 56431
3 | 12:32.32 | 1:26.35 | 56432 | 62916
4 | 13:58.67 | 11:25.05 | 62917 | 114296
5 | 25:23.72 | 5:26.73 | 114297 | 138819
6 | 30:50.70 | 6:19.47 | 138820 | 167291
7 | 37:10.42 | 6:39.23 | 167292 | 197239
8 | 43:49.65 | 6:39.30 | 197240 | 227194
9 | 50:29.20 | 5:29.20 | 227195 | 251889
10 | 55:58.40 | 6:59.42 | 251890 | 283356
11 | 62:58.07 | 5:20.03 | 283357 | 307359
Характеристики диапазона извлечения и сообщения об ошибках
Выбранный диапазон
Имя файла M:\Music\Jazz\Thelonious.Monk\The.Complete.Riverside.Recordings\The.Complete.Riverside.Recordings.CD05\Thelonious Monk - The Complete Riverside Recordings (disc 5).wav
Пиковый уровень 100.0 %
Качество диапазона 100.0 %
CRC копии 054BAA38
Копирование... OK
Ошибок не произошло
Конец отчёта
Exact Audio Copy V0.99 prebeta 3 from 28. July 2007
Отчёт EAC об извлечении, выполненном 14. декабря 2007, 4:13
Thelonious Monk / The Complete Riverside Recordings (disc 6)
Дисковод: _NEC DVD_RW ND-2510A Adapter: 3 ID: 1
Режим чтения : Достоверность
Использование точного потока : Да
Отключение кэша аудио : Да
Использование указателей C2 : Нет
Коррекция смещения при чтении : 48
Способность читать области Lead-in и Lead-out : Нет
Заполнение пропущенных сэмплов тишиной : Да
Удаление блоков с тишиной в начале и конце : Нет
При вычислениях CRC использовались нулевые сэмплы : Нет
Интерфейс : Установленный внешний ASPI-интерфейс
Выходной формат : Monkey's Audio (без потерь)
Выбранный битрейт : High Lossless Compression
Качество : Высокий
Добавление ID3-тэга : Да
Утилита сжатия : C:\Program Files\Monkey's Audio\Monkey's Audio.exe
TOC извлечённого CD
Трек | Старт | Длительность | Начальный сектор | Конечный сектор
---------------------------------------------------------------------
1 | 0:00.00 | 6:22.17 | 0 | 28666
2 | 6:22.17 | 6:32.60 | 28667 | 58126
3 | 12:55.02 | 6:53.73 | 58127 | 89174
4 | 19:49.00 | 8:30.10 | 89175 | 127434
5 | 28:19.10 | 5:54.15 | 127435 | 153999
6 | 34:13.25 | 6:37.52 | 154000 | 183826
7 | 40:51.02 | 7:16.33 | 183827 | 216559
8 | 48:07.35 | 6:04.45 | 216560 | 243904
9 | 54:12.05 | 4:42.52 | 243905 | 265106
10 | 58:54.57 | 7:21.08 | 265107 | 298189
Характеристики диапазона извлечения и сообщения об ошибках
Выбранный диапазон
Имя файла M:\Music\Jazz\Thelonious.Monk\The.Complete.Riverside.Recordings\The.Complete.Riverside.Recordings.CD06\Thelonious Monk - The Complete Riverside Recordings (disc 6).wav
Пиковый уровень 100.0 %
Качество диапазона 99.9 %
CRC копии F50349B4
Копирование... OK
Ошибок не произошло
Конец отчёта
Exact Audio Copy V0.99 prebeta 3 from 28. July 2007
Отчёт EAC об извлечении, выполненном 14. декабря 2007, 3:44
Thelonious Monk / The Complete Riverside Recordings (disc 7)
Дисковод: _NEC DVD_RW ND-2510A Adapter: 3 ID: 1
Режим чтения : Достоверность
Использование точного потока : Да
Отключение кэша аудио : Да
Использование указателей C2 : Нет
Коррекция смещения при чтении : 48
Способность читать области Lead-in и Lead-out : Нет
Заполнение пропущенных сэмплов тишиной : Да
Удаление блоков с тишиной в начале и конце : Нет
При вычислениях CRC использовались нулевые сэмплы : Нет
Интерфейс : Установленный внешний ASPI-интерфейс
Выходной формат : Monkey's Audio (без потерь)
Выбранный битрейт : High Lossless Compression
Качество : Высокий
Добавление ID3-тэга : Да
Утилита сжатия : C:\Program Files\Monkey's Audio\Monkey's Audio.exe
TOC извлечённого CD
Трек | Старт | Длительность | Начальный сектор | Конечный сектор
---------------------------------------------------------------------
1 | 0:00.00 | 4:31.47 | 0 | 20371
2 | 4:31.47 | 4:56.65 | 20372 | 42636
3 | 9:28.37 | 4:30.40 | 42637 | 62926
4 | 13:59.02 | 6:14.03 | 62927 | 90979
5 | 20:13.05 | 2:36.17 | 90980 | 102696
6 | 22:49.22 | 3:23.68 | 102697 | 117989
7 | 26:13.15 | 7:02.70 | 117990 | 149709
8 | 33:16.10 | 3:05.40 | 149710 | 163624
9 | 36:21.50 | 10:16.40 | 163625 | 209864
10 | 46:38.15 | 9:56.22 | 209865 | 254586
11 | 56:34.37 | 10:57.55 | 254587 | 303916
Характеристики диапазона извлечения и сообщения об ошибках
Выбранный диапазон
Имя файла M:\Music\Jazz\Thelonious.Monk\The.Complete.Riverside.Recordings\The.Complete.Riverside.Recordings.CD07\Thelonious Monk - The Complete Riverside Recordings (disc 7).wav
Пиковый уровень 100.0 %
Качество диапазона 100.0 %
CRC копии C043CB15
Копирование... OK
Ошибок не произошло
Конец отчёта
Exact Audio Copy V0.99 prebeta 3 from 28. July 2007
Отчёт EAC об извлечении, выполненном 14. декабря 2007, 2:54
Thelonious Monk / The Complete Riverside Recordings (disc 8)
Дисковод: _NEC DVD_RW ND-2510A Adapter: 3 ID: 1
Режим чтения : Достоверность
Использование точного потока : Да
Отключение кэша аудио : Да
Использование указателей C2 : Нет
Коррекция смещения при чтении : 48
Способность читать области Lead-in и Lead-out : Нет
Заполнение пропущенных сэмплов тишиной : Да
Удаление блоков с тишиной в начале и конце : Нет
При вычислениях CRC использовались нулевые сэмплы : Нет
Интерфейс : Установленный внешний ASPI-интерфейс
Выходной формат : Monkey's Audio (без потерь)
Выбранный битрейт : High Lossless Compression
Качество : Высокий
Добавление ID3-тэга : Да
Утилита сжатия : C:\Program Files\Monkey's Audio\Monkey's Audio.exe
TOC извлечённого CD
Трек | Старт | Длительность | Начальный сектор | Конечный сектор
---------------------------------------------------------------------
1 | 0:00.00 | 1:55.70 | 0 | 8694
2 | 1:55.70 | 6:18.52 | 8695 | 37096
3 | 8:14.47 | 11:57.05 | 37097 | 90876
4 | 20:11.52 | 5:15.10 | 90877 | 114511
5 | 25:26.62 | 5:23.73 | 114512 | 138809
6 | 30:50.60 | 9:28.17 | 138810 | 181426
7 | 40:19.02 | 2:09.58 | 181427 | 191159
8 | 42:28.60 | 8:29.52 | 191160 | 229386
9 | 50:58.37 | 8:45.48 | 229387 | 268809
10 | 59:44.10 | 1:07.65 | 268810 | 273899
Характеристики диапазона извлечения и сообщения об ошибках
Выбранный диапазон
Имя файла M:\Music\Jazz\Thelonious.Monk\The.Complete.Riverside.Recordings\The.Complete.Riverside.Recordings.CD08\Thelonious Monk - The Complete Riverside Recordings (disc 8).wav
Пиковый уровень 100.0 %
Качество диапазона 100.0 %
CRC копии 593E49F9
Копирование... OK
Ошибок не произошло
Конец отчёта
Exact Audio Copy V0.99 prebeta 3 from 28. July 2007
Отчёт EAC об извлечении, выполненном 14. декабря 2007, 2:15
Thelonious Monk / The Complete Riverside Recordings (disc 9)
Дисковод: _NEC DVD_RW ND-2510A Adapter: 3 ID: 1
Режим чтения : Достоверность
Использование точного потока : Да
Отключение кэша аудио : Да
Использование указателей C2 : Нет
Коррекция смещения при чтении : 48
Способность читать области Lead-in и Lead-out : Нет
Заполнение пропущенных сэмплов тишиной : Да
Удаление блоков с тишиной в начале и конце : Нет
При вычислениях CRC использовались нулевые сэмплы : Нет
Интерфейс : Установленный внешний ASPI-интерфейс
Выходной формат : Monkey's Audio (без потерь)
Выбранный битрейт : High Lossless Compression
Качество : Высокий
Добавление ID3-тэга : Да
Утилита сжатия : C:\Program Files\Monkey's Audio\Monkey's Audio.exe
TOC извлечённого CD
Трек | Старт | Длительность | Начальный сектор | Конечный сектор
---------------------------------------------------------------------
1 | 0:00.00 | 5:23.00 | 0 | 24224
2 | 5:23.00 | 8:12.32 | 24225 | 61156
3 | 13:35.32 | 9:15.23 | 61157 | 102804
4 | 22:50.55 | 11:20.30 | 102805 | 153834
5 | 34:11.10 | 10:47.42 | 153835 | 202401
6 | 44:58.52 | 1:04.15 | 202402 | 207216
7 | 46:02.67 | 7:08.70 | 207217 | 239386
8 | 53:11.62 | 8:20.18 | 239387 | 276904
Характеристики диапазона извлечения и сообщения об ошибках
Выбранный диапазон
Имя файла M:\Music\Jazz\Thelonious.Monk\The.Complete.Riverside.Recordings\The.Complete.Riverside.Recordings.CD09\Thelonious Monk - The Complete Riverside Recordings (disc 9).wav
Пиковый уровень 100.0 %
Качество диапазона 100.0 %
CRC копии A4EF5551
Копирование... OK
Ошибок не произошло
Конец отчёта
Exact Audio Copy V0.99 prebeta 3 from 28. July 2007
Отчёт EAC об извлечении, выполненном 14. декабря 2007, 1:35
Thelonious Monk / The Complete Riverside Recordings (disc 10)
Дисковод: _NEC DVD_RW ND-2510A Adapter: 3 ID: 1
Режим чтения : Достоверность
Использование точного потока : Да
Отключение кэша аудио : Да
Использование указателей C2 : Нет
Коррекция смещения при чтении : 48
Способность читать области Lead-in и Lead-out : Нет
Заполнение пропущенных сэмплов тишиной : Да
Удаление блоков с тишиной в начале и конце : Нет
При вычислениях CRC использовались нулевые сэмплы : Нет
Интерфейс : Установленный внешний ASPI-интерфейс
Выходной формат : Monkey's Audio (без потерь)
Выбранный битрейт : High Lossless Compression
Качество : Высокий
Добавление ID3-тэга : Да
Утилита сжатия : C:\Program Files\Monkey's Audio\Monkey's Audio.exe
TOC извлечённого CD
Трек | Старт | Длительность | Начальный сектор | Конечный сектор
---------------------------------------------------------------------
1 | 0:00.00 | 6:52.57 | 0 | 30956
2 | 6:52.57 | 10:21.43 | 30957 | 77574
3 | 17:14.25 | 9:30.20 | 77575 | 120344
4 | 26:44.45 | 8:53.22 | 120345 | 160341
5 | 35:37.67 | 7:51.00 | 160342 | 195666
6 | 43:28.67 | 3:04.15 | 195667 | 209481
7 | 46:33.07 | 4:51.08 | 209482 | 231314
8 | 51:24.15 | 8:31.12 | 231315 | 269651
Характеристики диапазона извлечения и сообщения об ошибках
Выбранный диапазон
Имя файла M:\Music\Jazz\Thelonious.Monk\The.Complete.Riverside.Recordings\The.Complete.Riverside.Recordings.CD10\Thelonious Monk - The Complete Riverside Recordings (disc 10).wav
Пиковый уровень 100.0 %
Качество диапазона 99.9 %
CRC копии D8F1C493
Копирование... OK
Ошибок не произошло
Конец отчёта
Exact Audio Copy V0.99 prebeta 3 from 28. July 2007
Отчёт EAC об извлечении, выполненном 14. декабря 2007, 1:03
Thelonious Monk / The Complete Riverside Recordings (disc 11)
Дисковод: _NEC DVD_RW ND-2510A Adapter: 3 ID: 1
Режим чтения : Достоверность
Использование точного потока : Да
Отключение кэша аудио : Да
Использование указателей C2 : Нет
Коррекция смещения при чтении : 48
Способность читать области Lead-in и Lead-out : Нет
Заполнение пропущенных сэмплов тишиной : Да
Удаление блоков с тишиной в начале и конце : Нет
При вычислениях CRC использовались нулевые сэмплы : Нет
Интерфейс : Установленный внешний ASPI-интерфейс
Выходной формат : Monkey's Audio (без потерь)
Выбранный битрейт : High Lossless Compression
Качество : Высокий
Добавление ID3-тэга : Да
Утилита сжатия : C:\Program Files\Monkey's Audio\Monkey's Audio.exe
TOC извлечённого CD
Трек | Старт | Длительность | Начальный сектор | Конечный сектор
---------------------------------------------------------------------
1 | 0:00.00 | 6:58.47 | 0 | 31396
2 | 6:58.47 | 7:55.33 | 31397 | 67054
3 | 14:54.05 | 8:02.07 | 67055 | 103211
4 | 22:56.12 | 9:23.53 | 103212 | 145489
5 | 32:19.65 | 10:48.40 | 145490 | 194129
6 | 43:08.30 | 9:50.65 | 194130 | 238444
7 | 52:59.20 | 6:10.10 | 238445 | 266204
8 | 59:09.30 | 3:39.37 | 266205 | 282666
9 | 62:48.67 | 3:55.28 | 282667 | 300319
10 | 66:44.20 | 3:44.20 | 300320 | 317139
Характеристики диапазона извлечения и сообщения об ошибках
Выбранный диапазон
Имя файла M:\Music\Jazz\Thelonious.Monk\The.Complete.Riverside.Recordings\The.Complete.Riverside.Recordings.CD11\Thelonious Monk - The Complete Riverside Recordings (disc 11).wav
Пиковый уровень 100.0 %
Качество диапазона 99.9 %
CRC копии 7C5F7BB6
Копирование... OK
Ошибок не произошло
Конец отчёта
Exact Audio Copy V0.99 prebeta 3 from 28. July 2007
Отчёт EAC об извлечении, выполненном 14. декабря 2007, 0:28
Thelonious Monk / The Complete Riverside Recordings (disc 12)
Дисковод: _NEC DVD_RW ND-2510A Adapter: 3 ID: 1
Режим чтения : Достоверность
Использование точного потока : Да
Отключение кэша аудио : Да
Использование указателей C2 : Нет
Коррекция смещения при чтении : 48
Способность читать области Lead-in и Lead-out : Нет
Заполнение пропущенных сэмплов тишиной : Да
Удаление блоков с тишиной в начале и конце : Нет
При вычислениях CRC использовались нулевые сэмплы : Нет
Интерфейс : Установленный внешний ASPI-интерфейс
Выходной формат : Внутренние WAV-операции
Формат сэмплов : 44.100 Гц; 16 бит; стерео
TOC извлечённого CD
Трек | Старт | Длительность | Начальный сектор | Конечный сектор
---------------------------------------------------------------------
1 | 0:00.00 | 4:00.57 | 0 | 18056
2 | 4:00.57 | 4:07.08 | 18057 | 36589
3 | 8:07.65 | 4:23.07 | 36590 | 56321
4 | 12:30.72 | 5:40.60 | 56322 | 81881
5 | 18:11.57 | 5:07.53 | 81882 | 104959
6 | 23:19.35 | 2:45.72 | 104960 | 117406
7 | 26:05.32 | 3:41.05 | 117407 | 133986
8 | 29:46.37 | 4:05.48 | 133987 | 152409
9 | 33:52.10 | 8:52.22 | 152410 | 192331
10 | 42:44.32 | 7:10.60 | 192332 | 224641
11 | 49:55.17 | 7:56.05 | 224642 | 260346
12 | 57:51.22 | 8:32.08 | 260347 | 298754
Характеристики диапазона извлечения и сообщения об ошибках
Выбранный диапазон
Имя файла M:\Music\Jazz\Thelonious.Monk\The.Complete.Riverside.Recordings\The.Complete.Riverside.Recordings.CD12\Thelonious Monk - The Complete Riverside Recordings (disc 12).wav
Пиковый уровень 100.0 %
Качество диапазона 99.9 %
CRC копии E007FFF2
Копирование... OK
Ошибок не произошло
Конец отчёта
Exact Audio Copy V0.99 prebeta 3 from 28. July 2007
Отчёт EAC об извлечении, выполненном 14. декабря 2007, 0:14
Thelonious Monk / The Complete Riverside Recordings (disc 13)
Дисковод: _NEC DVD_RW ND-2510A Adapter: 3 ID: 1
Режим чтения : Достоверность
Использование точного потока : Да
Отключение кэша аудио : Да
Использование указателей C2 : Нет
Коррекция смещения при чтении : 48
Способность читать области Lead-in и Lead-out : Нет
Заполнение пропущенных сэмплов тишиной : Да
Удаление блоков с тишиной в начале и конце : Нет
При вычислениях CRC использовались нулевые сэмплы : Нет
Интерфейс : Установленный внешний ASPI-интерфейс
Выходной формат : Внутренние WAV-операции
Формат сэмплов : 44.100 Гц; 16 бит; стерео
TOC извлечённого CD
Трек | Старт | Длительность | Начальный сектор | Конечный сектор
---------------------------------------------------------------------
1 | 0:00.00 | 6:14.70 | 0 | 28119
2 | 6:14.70 | 7:10.22 | 28120 | 60391
3 | 13:25.17 | 1:04.55 | 60392 | 65246
4 | 14:29.72 | 6:42.10 | 65247 | 95406
5 | 21:12.07 | 7:36.13 | 95407 | 129619
6 | 28:48.20 | 8:36.45 | 129620 | 168364
7 | 37:24.65 | 12:05.60 | 168365 | 222799
8 | 49:30.50 | 9:11.65 | 222800 | 264189
9 | 58:42.40 | 8:44.35 | 264190 | 303524
10 | 67:27.00 | 1:15.62 | 303525 | 309211
Характеристики диапазона извлечения и сообщения об ошибках
Выбранный диапазон
Имя файла M:\Music\Jazz\Thelonious.Monk\The.Complete.Riverside.Recordings\The.Complete.Riverside.Recordings.CD13\Thelonious Monk - The Complete Riverside Recordings (disc 13).wav
Пиковый уровень 93.2 %
Качество диапазона 99.9 %
CRC копии CF61A185
Копирование... OK
Ошибок не произошло
Конец отчёта
Exact Audio Copy V0.99 prebeta 3 from 28. July 2007
Отчёт EAC об извлечении, выполненном 13. декабря 2007, 23:57
Thelonious Monk / The Complete Riverside Recordings (disc 14)
Дисковод: _NEC DVD_RW ND-2510A Adapter: 3 ID: 1
Режим чтения : Достоверность
Использование точного потока : Да
Отключение кэша аудио : Да
Использование указателей C2 : Нет
Коррекция смещения при чтении : 48
Способность читать области Lead-in и Lead-out : Нет
Заполнение пропущенных сэмплов тишиной : Да
Удаление блоков с тишиной в начале и конце : Нет
При вычислениях CRC использовались нулевые сэмплы : Нет
Интерфейс : Установленный внешний ASPI-интерфейс
Выходной формат : Внутренние WAV-операции
Формат сэмплов : 44.100 Гц; 16 бит; стерео
TOC извлечённого CD
Трек | Старт | Длительность | Начальный сектор | Конечный сектор
---------------------------------------------------------------------
1 | 0:00.00 | 11:30.62 | 0 | 51811
2 | 11:30.62 | 2:39.28 | 51812 | 63764
3 | 14:10.15 | 10:12.05 | 63765 | 109669
4 | 24:22.20 | 2:47.25 | 109670 | 122219
5 | 27:09.45 | 11:41.20 | 122220 | 174814
6 | 38:50.65 | 1:19.02 | 174815 | 180741
7 | 40:09.67 | 11:02.55 | 180742 | 230446
8 | 51:12.47 | 10:37.20 | 230447 | 278241
9 | 61:49.67 | 1:45.55 | 278242 | 286171
Характеристики диапазона извлечения и сообщения об ошибках
Выбранный диапазон
Имя файла M:\Music\Jazz\Thelonious.Monk\The.Complete.Riverside.Recordings\The.Complete.Riverside.Recordings.CD14\Thelonious Monk - The Complete Riverside Recordings (disc 14).wav
Пиковый уровень 100.0 %
Качество диапазона 99.9 %
CRC копии 65249FCA
Копирование... OK
Ошибок не произошло
Конец отчёта
Exact Audio Copy V0.99 prebeta 3 from 28. July 2007
Отчёт EAC об извлечении, выполненном 13. декабря 2007, 23:44
Thelonious Monk / The Complete Riverside Recordings (disc 15)
Дисковод: _NEC DVD_RW ND-2510A Adapter: 3 ID: 1
Режим чтения : Достоверность
Использование точного потока : Да
Отключение кэша аудио : Да
Использование указателей C2 : Нет
Коррекция смещения при чтении : 48
Способность читать области Lead-in и Lead-out : Нет
Заполнение пропущенных сэмплов тишиной : Да
Удаление блоков с тишиной в начале и конце : Нет
При вычислениях CRC использовались нулевые сэмплы : Нет
Интерфейс : Установленный внешний ASPI-интерфейс
Выходной формат : Внутренние WAV-операции
Формат сэмплов : 44.100 Гц; 16 бит; стерео
TOC извлечённого CD
Трек | Старт | Длительность | Начальный сектор | Конечный сектор
---------------------------------------------------------------------
1 | 0:00.00 | 9:46.35 | 0 | 43984
2 | 9:46.35 | 6:12.40 | 43985 | 71924
3 | 15:59.00 | 8:36.27 | 71925 | 110651
4 | 24:35.27 | 4:53.18 | 110652 | 132644
5 | 29:28.45 | 4:48.37 | 132645 | 154281
6 | 34:17.07 | 9:03.60 | 154282 | 195066
7 | 43:20.67 | 2:42.55 | 195067 | 207271
8 | 46:03.47 | 6:56.18 | 207272 | 238489
9 | 52:59.65 | 5:57.40 | 238490 | 265304
10 | 58:57.30 | 5:47.55 | 265305 | 291384
11 | 64:45.10 | 5:03.70 | 291385 | 314179
Характеристики диапазона извлечения и сообщения об ошибках
Выбранный диапазон
Имя файла M:\Music\Jazz\Thelonious.Monk\The.Complete.Riverside.Recordings\The.Complete.Riverside.Recordings.CD15\Thelonious Monk - The Complete Riverside Recordings (disc 15).wav
Пиковый уровень 100.0 %
Качество диапазона 99.9 %
CRC копии 640B8165
Копирование... OK
Ошибок не произошло
Конец отчёта
Приватный Нет (DHT включён)
Хэш 2C61D77DA2BC1413B4A52C4D483688EE72707994
Размер 4.40 Гб (4,727,858,900 байт) » файлов: 91 [ Список файлов ]
Участники 0 раздают, 0 качают (0 участников всего)
Внешние участники 8 раздают, 2 качают (10 участников всего)
Скорость Сейчас никто не качает
18:49
36
RSS
Нет комментариев. Ваш будет первым!