Поиск

1986 Misha Mengelberg - Change of Season (Music of Herbie Nichols) {Soul Note 121104-1}

1986 Misha Mengelberg - Change of Season (Music of Herbie Nichols) {Soul Note 121104-1}
Страна-производитель диска (релиза):
Italy
Дата записи диска:
2 июля и 3 июля 1984
Дата издания диска:
январь 1986
Номер по каталогу:
121104-1
Носитель:
CD
Битрейт аудио:
lossless
Аудиокодек:
FLAC (*.flac)
Тип рипа:
tracks+.cue
Время звучания:
38:33
Наличие сканов:
  • да
Релизёр (источник):
Demonoid
Треклист:

01. House Party Starting 7:33
02. The Happenings 3:43
03. Step Tempest 4:31
04. Hangover Triangle 3:46
05. Change of Season 6:42
06. Spinning Song 7:11
07. Terpsichore 4:33

Состав:
  • Han Bennink Drums
  • Arjen Gorter Bass
  • Steve Lacy Sax (Soprano)
  • George Lewis Trombone
  • Misha Mengelberg Piano, Arranger
Содержание индексной карты (.CUE)
PERFORMER "Misha Mengelberg, Steve Lacy, George Lewis, Harjen Gorter, Han Bennink"
TITLE "Change of Season (Music of Herbie Nichols) (1985)"
FILE "01 - House Party Starting.flac" WAVE
  TRACK 01 AUDIO
    TITLE "House Party Starting"
    INDEX 01 00:00:00
FILE "02 - The Happenings.flac" WAVE	
  TRACK 02 AUDIO
    TITLE "The Happenings"
	INDEX 01 00:00:00
FILE "03 - Step Tempest.flac" WAVE
  TRACK 03 AUDIO
    TITLE "Step Tempest"
	INDEX 01 00:00:00
FILE "04 - Hangover Triangle.flac" WAVE
  TRACK 04 AUDIO
    TITLE "Hangover Triangle"
	INDEX 01 00:00:00
FILE "05 - Change of Season.flac" WAVE	
  TRACK 05 AUDIO
    TITLE "Change of Season"
	INDEX 01 00:00:00
FILE "06 - Spinning Song.flac" WAVE	
  TRACK 06 AUDIO
    TITLE "Spinning Song"
	INDEX 01 00:00:00
FILE "07 - Terpsichore.flac" WAVE	
  TRACK 07 AUDIO
    TITLE "Terpsichore"
	INDEX 01 00:00:00
Лог проверки качества
AUDIOCHECKER v2.0 beta (build 457) - by Dester - opdester@freemail.hu
~~~~~~~~~~~~~~~~~~~~~~~~~~~~~~~~~~

Started at: Friday, 04. 01. 2008. - 18:12.31
7 files found

1 -===- C:\Family_Folder\Torrent\0_My_Music\Misha Mengelberg - 1984- Change of Season - The Music of Herbie Nichols\01 - House Party Starting.flac
  Extracted successfully
  Conclusion: this track is CDDA with probability 100%
  Tempfile successfully deleted.

2 -===- C:\Family_Folder\Torrent\0_My_Music\Misha Mengelberg - 1984- Change of Season - The Music of Herbie Nichols\02 - The Happenings.flac
  Extracted successfully
  Conclusion: this track is CDDA with probability 100%
  Tempfile successfully deleted.

3 -===- C:\Family_Folder\Torrent\0_My_Music\Misha Mengelberg - 1984- Change of Season - The Music of Herbie Nichols\03 - Step Tempest.flac
  Extracted successfully
  Conclusion: this track is CDDA with probability 100%
  Tempfile successfully deleted.

4 -===- C:\Family_Folder\Torrent\0_My_Music\Misha Mengelberg - 1984- Change of Season - The Music of Herbie Nichols\04 - Hangover Triangle.flac
  Extracted successfully
  Conclusion: this track is CDDA with probability 100%
  Tempfile successfully deleted.

5 -===- C:\Family_Folder\Torrent\0_My_Music\Misha Mengelberg - 1984- Change of Season - The Music of Herbie Nichols\05 - Change Of Season.flac
  Extracted successfully
  Conclusion: this track is CDDA with probability 100%
  Tempfile successfully deleted.

6 -===- C:\Family_Folder\Torrent\0_My_Music\Misha Mengelberg - 1984- Change of Season - The Music of Herbie Nichols\06 - Spinning Song.flac
  Extracted successfully
  Conclusion: this track is CDDA with probability 100%
  Tempfile successfully deleted.

7 -===- C:\Family_Folder\Torrent\0_My_Music\Misha Mengelberg - 1984- Change of Season - The Music of Herbie Nichols\07 - Terpsichore.flac
  Extracted successfully
  Conclusion: this track is CDDA with probability 100%
  Tempfile successfully deleted.

Finished at: Friday, 04. 01. 2008. - 18:20.43 (operation time: 0:08.12)
Приватный:
Нет (DHT включён)
Размер:
190.00 Мб (199,234,320 байт) » файлов: 14
Участники:
0 раздают, 0 качают (0 участников всего)
Внешние участники:
5 раздают, 1 качают (6 участников всего) [ Обновить ]
08:20
107
RSS
Нет комментариев. Ваш будет первым!