Поиск

1986 - 2007 Najee - Collection (12CD)

1986 - 2007 Najee - Collection (12CD)
Носитель:
CD
Битрейт аудио:
lossless
Аудиокодек:
FLAC (*.flac)
Тип рипа:
image+.cue
Время звучания:
10:39:36
Наличие сканов:
  • да
Релизёр (источник):
zzazas2000
Треклист:
1986 - Najee's Theme

Производитель диска: USA (EMI)
Продолжительность: 0:44:03
Billboard Charts:
Top Contemporary Jazz Albums No. 1
Top Jazz Albums No. 8
Top R&B/Hip-Hop Albums No. 12
The Billboard 200 No. 56

01. Feel So Good To Me 04:41
02. Najee's Theme 04:35
03. For The Love Of You 05:01
04. Can't Hide Love 05:09
05. We're Still Family 04:41
06. Sweet Love 04:44
07. Betcha Don't Know 05:49
08. What You Do To Me 05:13
09. Mysterious 04:05

Состав

Ralph Rolle - Drums
Rahni Song - Synthesizer, Flute, Keyboards, Piano, Sax (Alto), Sax (Soprano), Vocals, Producer, Keyboard Bass, Drum Programming,
Fareed - Guitar
Richie Ruiz - Drums
Pete Tateo - Percussion, Vocals
Regis Branson - Keyboards, Keyboard Bass, Vocals
Kris Kello - Keyboard Bass
Tahni Song - Keyboards, Vocals
Tanya Willoughby - Vocals
Billy Rucker - Vocals
Karen Marshall - Vocals
Vanessa Anderson - Vocals
John White - Vocals
Scott White - Vocals
Lesette Wilson - Piano
Wayne Brathwaite - Keyboards, Keyboard Bass
Zack Harris - Percussion, Vocals
Barry Sonjohn Johnson - Guitar (Bass)
Khris Kellow - Keyboards, Keyboard Bass
Charlie Elgart - Synthesizer, Sax (Alto), Sax (Soprano), Drum Programming, Producer, Flute, Keyboards
Omar Hakim - Drums
Najee - Flute, Drum Programming, Main Performer, Producer, Sax (Soprano), Keyboards, Sax (Alto)

Log

Exact Audio Copy V0.99 prebeta 4 from 23. January 2008
EAC extraction logfile from 17. September 2008, 17:07
Najee / Najee's Theme
Used drive : TSSTcorpCDDVDW SE-S204N Adapter: 0 ID: 0
Read mode : Secure
Utilize accurate stream : Yes
Defeat audio cache : Yes
Make use of C2 pointers : No
Read offset correction : 6
Overread into Lead-In and Lead-Out : No
Fill up missing offset samples with silence : Yes
Delete leading and trailing silent blocks : No
Null samples used in CRC calculations : Yes
Used interface : Installed external ASPI interface
Used output format : User Defined Encoder
Selected bitrate : 128 kBit/s
Quality : High
Add ID3 tag : No
Command line compressor : C:\Program Files\FLAC\flac.exe
Additional command line options : -8 -V -T "ARTIST=%a" -T "TITLE=%t" -T "ALBUM=%g" -T "DATE=%y" -T "TRACKNUMBER=%n" -T "GENRE=%m" -T "COMMENT=EAC FLAC -8" %s
TOC of the extracted CD
Track | Start | Length | Start sector | End sector
---------------------------------------------------------
1 | 0:00.00 | 4:41.37 | 0 | 21111
2 | 4:41.37 | 4:35.63 | 21112 | 41799
3 | 9:17.25 | 5:01.52 | 41800 | 64426
4 | 14:19.02 | 5:09.58 | 64427 | 87659
5 | 19:28.60 | 4:41.02 | 87660 | 108736
6 | 24:09.62 | 4:44.58 | 108737 | 130094
7 | 28:54.45 | 5:49.70 | 130095 | 156339
8 | 34:44.40 | 5:13.32 | 156340 | 179846
9 | 39:57.72 | 4:05.38 | 179847 | 198259
Range status and errors
Selected range
Filename J:\TTT\NAJEE{rutracker.org]\[1986]Najee's Theme\Najee - Najee's Theme.wav
Peak level 78.1 %
Range quality 100.0 %
Test CRC B176E7D3
Copy CRC B176E7D3
Copy OK
No errors occurred
AccurateRip summary
Track 1 not present in database
Track 2 not present in database
Track 3 not present in database
Track 4 not present in database
Track 5 not present in database
Track 6 not present in database
Track 7 not present in database
Track 8 not present in database
Track 9 not present in database
None of the tracks are present in the AccurateRip database
End of status report

1988 - Day By Day

Производитель диска: USA (EMI)
Продолжительность: 0:48:27
Billboard Charts:
Top Contemporary Jazz Albums No. 6
Top R&B/Hip-Hop Albums No. 23
The Billboard 200 No. 76

01. Personality 04:24
02. Day By Day 05:04
03. So Hard To Let Go 04:55
04. He's Armed And Dangerous 04:53
05. Gina 04:06
06. That's The Way Of The World 06:37
07. Tonight I'm Yours 04:17
08. Najee's Nasty Groove 04:52
09. Sweet Sensation 04:32
10. Stand Up 04:42

Состав

Laverne Blair - Vocals (bckgr), Assistant Producer
Clifford Branch - Synthesizer, Keyboards
Wayne Brathwaite - Synthesizer, Bass, Producer, Drum Programming
Alex Bugnon - Keyboards
Armstead Christian - Vocals
Robert Damper - Keyboards
Janice Dempsey - Vocals
Barry Eastmond - Keyboards, Producer, Drum Programming
Charlie Elgart - Producer, Engineer, Mixing, Keyboard Programming
Fareed - Guitar, Percussion, Keyboards, Producer, Drum Programming
Thomas Flammia - Guitar, Vocals (bckgr)
Bernard Fowler - Vocals, Vocals (bckgr)
Diane Garisto - Vocals (bckgr)
Nikki Gregoroff - Vocals (bckgr)
Darroll Gustamachio - Mixing
Barry Sonjohn Johnson - Bass, Vocals (bckgr)
Bashiri Johnson - Percussion
Judy Jones - Vocals (bckgr)
Curtis King - Vocals (bckgr)
Rohn Lawrence - Guitar
Yogi Lee - Vocals, Vocals (bckgr)
Cindy Mizell - Vocals (bckgr)
Najee - Keyboards, Saxophone, Producer
Janice Pendarvis - Vocals (bckgr)
Ira Seigel - Guitar
Rahni Song - Vocals (bckgr), Producer, Engineer, Fairlight
Audrey Wheeler - Vocals (bckgr)
Buddy Williams - Cymbals, Drums

Log

Exact Audio Copy V0.99 prebeta 4 from 23. January 2008
EAC extraction logfile from 3. September 2008, 16:56
Najee / Day By Day
Used drive : TSSTcorpCDDVDW SE-S204N Adapter: 0 ID: 0
Read mode : Secure
Utilize accurate stream : Yes
Defeat audio cache : Yes
Make use of C2 pointers : No
Read offset correction : 6
Overread into Lead-In and Lead-Out : No
Fill up missing offset samples with silence : Yes
Delete leading and trailing silent blocks : No
Null samples used in CRC calculations : Yes
Used interface : Installed external ASPI interface
Used output format : User Defined Encoder
Selected bitrate : 128 kBit/s
Quality : High
Add ID3 tag : No
Command line compressor : C:\Program Files\FLAC\flac.exe
Additional command line options : -8 -V -T "ARTIST=%a" -T "TITLE=%t" -T "ALBUM=%g" -T "DATE=%y" -T "TRACKNUMBER=%n" -T "GENRE=%m" -T "COMMENT=EAC FLAC -8" %s
TOC of the extracted CD
Track | Start | Length | Start sector | End sector
---------------------------------------------------------
1 | 0:00.00 | 4:24.53 | 0 | 19852
2 | 4:24.53 | 5:04.00 | 19853 | 42652
3 | 9:28.53 | 4:55.47 | 42653 | 64824
4 | 14:24.25 | 4:53.35 | 64825 | 86834
5 | 19:17.60 | 4:06.73 | 86835 | 105357
6 | 23:24.58 | 6:37.05 | 105358 | 135137
7 | 30:01.63 | 4:17.65 | 135138 | 154477
8 | 34:19.53 | 4:52.12 | 154478 | 176389
9 | 39:11.65 | 4:32.60 | 176390 | 196849
10 | 43:44.50 | 4:42.60 | 196850 | 218059
Range status and errors
Selected range
Filename J:\TTT\NAJEE{rutracker.org]\[1988]Day By Day\Najee - Day By Day.wav
Peak level 100.0 %
Range quality 100.0 %
Test CRC 6B1A386B
Copy CRC 6B1A386B
Copy OK
No errors occurred
AccurateRip summary
Track 1 accurately ripped (confidence 7) [9554B964]
Track 2 accurately ripped (confidence 7) [60B8E3EB]
Track 3 accurately ripped (confidence 7) [C34C324A]
Track 4 accurately ripped (confidence 7) [F1DA0B6E]
Track 5 accurately ripped (confidence 7) [AA4AB966]
Track 6 accurately ripped (confidence 7) [8AA07C27]
Track 7 accurately ripped (confidence 7) [A2528378]
Track 8 accurately ripped (confidence 7) [FCD5AAED]
Track 9 accurately ripped (confidence 7) [9E7077F3]
Track 10 accurately ripped (confidence 7) [48489DE8]
All tracks accurately ripped
End of status report

1990 - Tokyo Blue

Производитель диска: USA (EMI)
Продолжительность: 0:47:31
Billboard Charts:
Top Contemporary Jazz Albums No. 1
Top R&B/Hip-Hop Albums No. 17
The Billboard 200 No. 63

1. Talkin' 05:50
2. Stay 05:09
3. Cruise Control 05:51
4. I'll Be Good to You 04:27
5. Nation's Call 01:04
6. Tokyo Blue 04:34
7. My Old Friend 04:50
8. Buenos Aires 05:48
9. Superwoman (Where Were You When I Needed You) 05:00
10. Only at Night 04:39

Состав

Denzil Miller - Piano, Finger Snaps
Paul Mills – Drums
Morris Pleasure - Bass, Keyboards, Synthesizer
Bass Fareed - Guitar, Vocal Arrangement, Production Coordination, Drum Programming, Mixing, Engineer
Artie Reynolds - Bass
Rohn Lawrence - Guitar
Regis Branson - Vocals (Background)
Steve Horton - Guitar
James Calloway - Bass
Audrey Wheeler - Vocals (Background)
Don Blackman - Keyboards
Robert Damper - Keyboards
Werner Vana Gierig - Synthesizer
Barry Sonjohn Johnson - Bass, Vocals
Mark Ledford - Vocals
Freddie Jackson - Vocals, Vocals (Background)
Vesta Williams - Vocals, Vocals (Background), Vocal Arrangement
Victor Bailey - Bass
Omar Hakim - Drums
Najee - Flute, Sax (Alto), Mixing Assistant, Assistant Engineer, Drum Programming, Finger Snaps, Main Performer, Sax (Soprano), Sax (Tenor)

Log

Exact Audio Copy V0.99 prebeta 4 from 23. January 2008
EAC extraction logfile from 4. September 2008, 14:47
Najee / Tokyo Blue
Used drive : TSSTcorpCDDVDW SE-S204N Adapter: 0 ID: 0
Read mode : Secure
Utilize accurate stream : Yes
Defeat audio cache : Yes
Make use of C2 pointers : No
Read offset correction : 6
Overread into Lead-In and Lead-Out : No
Fill up missing offset samples with silence : Yes
Delete leading and trailing silent blocks : No
Null samples used in CRC calculations : Yes
Used interface : Installed external ASPI interface
Used output format : User Defined Encoder
Selected bitrate : 128 kBit/s
Quality : High
Add ID3 tag : No
Command line compressor : C:\Program Files\FLAC\flac.exe
Additional command line options : -8 -V -T "ARTIST=%a" -T "TITLE=%t" -T "ALBUM=%g" -T "DATE=%y" -T "TRACKNUMBER=%n" -T "GENRE=%m" -T "COMMENT=EAC FLAC -8" %s
TOC of the extracted CD
Track | Start | Length | Start sector | End sector
---------------------------------------------------------
1 | 0:00.32 | 5:51.33 | 32 | 26389
2 | 5:51.65 | 5:09.47 | 26390 | 49611
3 | 11:01.37 | 5:53.20 | 49612 | 76106
4 | 16:54.57 | 4:28.48 | 76107 | 96254
5 | 21:23.30 | 1:01.72 | 96255 | 100901
6 | 22:25.27 | 4:36.43 | 100902 | 121644
7 | 27:01.70 | 4:54.30 | 121645 | 143724
8 | 31:56.25 | 5:48.10 | 143725 | 169834
9 | 37:44.35 | 5:04.52 | 169835 | 192686
10 | 42:49.12 | 4:42.58 | 192687 | 213894
Range status and errors
Selected range
Filename J:\TTT\NAJEE{rutracker.org]\[1990]Tokyo Blue\Najee - Tokyo Blue.wav
Peak level 100.0 %
Range quality 100.0 %
Test CRC 7B64E4BD
Copy CRC 7B64E4BD
Copy OK
No errors occurred
AccurateRip summary
Track 1 accurately ripped (confidence 5) [1CAEB45E]
Track 2 accurately ripped (confidence 5) [8755613A]
Track 3 accurately ripped (confidence 5) [08372B52]
Track 4 accurately ripped (confidence 5) [EF5C7AF8]
Track 5 accurately ripped (confidence 5) [CF073C94]
Track 6 accurately ripped (confidence 5) [3A78CF91]
Track 7 accurately ripped (confidence 5) [D39714C9]
Track 8 accurately ripped (confidence 5) [B8F77B68]
Track 9 accurately ripped (confidence 5) [96357F8D]
Track 10 accurately ripped (confidence 5) [171710DF]
All tracks accurately ripped
End of status report

1992 - Just An Illusion

pic

Производитель диска: USA (EMI)
Продолжительность: 1:04:55
Billboard Charts:
Top Contemporary Jazz Albums No. 5
Top R&B/Hip-Hop Albums No. 25
The Billboard 200 No. 107

01. Touch of Heaven 05:04
02. I Adore Mi Amor 05:28
03. Just an Illusion 05:01
04. Breezy 04:30
05. All I Ever Ask 04:38
06. Noah's Ark 05:05
07. Loving Every Moment 04:51
08. Burn It Up 05:03
09. Skyline 05:16
10. Deep Inside Your Love 05:14
11. Here We Go 05:16
12. Until We Meet Again 04:46
13. Whenever We're Together 04:37

Состав

Jean McClaine - Vocals (Background)
Veronica Menyweather - Vocals, Vocals (Background)
Jason Miles - Synthesizer, Programming
Marcus Miller - Guitar (Bass), Keyboards, Vocals (Background), Drum Programming, Engineer, Producer
Lori Perry - Vocals (Background)
Jeffrey Osborne - Vocals, Vocals (Background)
Jeff Pescetto - Vocals (Background), Producer
Angel Rogers - Vocals (Background)
Alec Shantzis - Bass, Keyboards
Jerry Elcock - Vocals (Background)
Fareed - Percussion, Drums, Engineer, Mixing, Producer, Arranger
Artie Reynolds - Synthesizer, Bass
Maree - Vocals (Background)
Freddie "Ready Freddie" Washington - Bass
Phil Perry - Vocals (Background)
Caron Wheeler - Vocals, Vocals (Background)
Bryan Loren - Synthesizer, Keyboards, Producer, Mixing, Engineer, Programming
Rachele Cappelli - Vocals (Background)
Jerry Barnes - Vocals (Background)
Katreese Barnes - Vocals (Background)
Poogie Bell - Drums
Kim Davis - Guitar (Bass)
Steve Dubin - Percussion, Drums, Producer
Brenda Lee Eager - Vocals (Background)
Mitch Foreman - Keyboards
Reggie Griffin - Vocals (Background)
Paul Jackson, Jr. - Guitar
Josie James - Vocals (Background)
Abraham Laboriel - Bass
Will Downing - Vocals
Freddie Jackson - Vocals
Paul Pesco - Guitar
Najee - Bass, Producer, Mixing, Drum Programming, Liner Notes, Main Performer, Sax (Soprano), Sax (Tenor), Sax (Alto), Keyboards, Drums, Arranger, Flute

Log

Exact Audio Copy V0.99 prebeta 4 from 23. January 2008
EAC extraction logfile from 17. September 2008, 16:47
Najee / Just An Illusion
Used drive : TSSTcorpCDDVDW SE-S204N Adapter: 0 ID: 0
Read mode : Secure
Utilize accurate stream : Yes
Defeat audio cache : Yes
Make use of C2 pointers : No
Read offset correction : 6
Overread into Lead-In and Lead-Out : No
Fill up missing offset samples with silence : Yes
Delete leading and trailing silent blocks : No
Null samples used in CRC calculations : Yes
Used interface : Installed external ASPI interface
Used output format : User Defined Encoder
Selected bitrate : 128 kBit/s
Quality : High
Add ID3 tag : No
Command line compressor : C:\Program Files\FLAC\flac.exe
Additional command line options : -8 -V -T "ARTIST=%a" -T "TITLE=%t" -T "ALBUM=%g" -T "DATE=%y" -T "TRACKNUMBER=%n" -T "GENRE=%m" -T "COMMENT=EAC FLAC -8" %s
TOC of the extracted CD
Track | Start | Length | Start sector | End sector
---------------------------------------------------------
1 | 0:00.00 | 5:04.47 | 0 | 22846
2 | 5:04.47 | 5:28.05 | 22847 | 47451
3 | 10:32.52 | 5:01.13 | 47452 | 70039
4 | 15:33.65 | 4:30.22 | 70040 | 90311
5 | 20:04.12 | 4:38.68 | 90312 | 111229
6 | 24:43.05 | 5:05.42 | 111230 | 134146
7 | 29:48.47 | 4:51.13 | 134147 | 155984
8 | 34:39.60 | 5:03.02 | 155985 | 178711
9 | 39:42.62 | 5:16.60 | 178712 | 202471
10 | 44:59.47 | 5:14.55 | 202472 | 226076
11 | 50:14.27 | 5:16.73 | 226077 | 249849
12 | 55:31.25 | 4:46.57 | 249850 | 271356
13 | 60:18.07 | 4:37.35 | 271357 | 292166
Range status and errors
Selected range
Filename J:\TTT\NAJEE{rutracker.org]\[1992]Just An Illusion\Najee - Just An Illusion.wav
Peak level 100.0 %
Range quality 100.0 %
Test CRC CFC67954
Copy CRC CFC67954
Copy OK
No errors occurred
AccurateRip summary
Track 1 cannot be verified as accurate (confidence 6) [F311B6D1], AccurateRip returned [5D819AD7]
Track 2 cannot be verified as accurate (confidence 6) [386FF565], AccurateRip returned [7EB94DB5]
Track 3 cannot be verified as accurate (confidence 6) [90B1AA83], AccurateRip returned [25571FFD]
Track 4 cannot be verified as accurate (confidence 6) [A8934C7A], AccurateRip returned [5FF73751]
Track 5 cannot be verified as accurate (confidence 5) [0CC50E4E], AccurateRip returned [2A85E09F]
Track 6 cannot be verified as accurate (confidence 5) [3B79881F], AccurateRip returned [24A85B57]
Track 7 cannot be verified as accurate (confidence 5) [2039D97B], AccurateRip returned [E7CB64D2]
Track 8 cannot be verified as accurate (confidence 5) [D370AE59], AccurateRip returned [C6B0F56C]
Track 9 cannot be verified as accurate (confidence 5) [57ADDB1A], AccurateRip returned [303C63BF]
Track 10 cannot be verified as accurate (confidence 6) [2CAEFB80], AccurateRip returned [671EBEC1]
Track 11 cannot be verified as accurate (confidence 4) [71BFDFB4], AccurateRip returned [69BDED4D]
Track 12 cannot be verified as accurate (confidence 6) [AE908FF2], AccurateRip returned [2342DC75]
Track 13 cannot be verified as accurate (confidence 4) [F62071C0], AccurateRip returned [880A6923]
No tracks could be verified as accurate
You may have a different pressing from the one(s) in the database
End of status report

1994 - Share My World

pic

Производитель диска: USA (EMI)
Продолжительность: 1:03:57
Billboard Charts:
Top Contemporary Jazz Albums No. 2
Top R&B/Hip-Hop Albums No. 23
The Billboard 200 No. 163

01. My Angel 06:15
02. Laid Back 04:50
03. Now That I've Found You 06:53
04. Joy 04:52
05. I Didn't Know 05:52
06. Secret Admirer 04:59
07. Street 05:14
08. Broken Promises 05:10
09. Heart Like Mine 06:36
10. Saleemah's Dream 01:59
11. Share My World 04:43
12. I Didn't Know (Instrumental) 06:27

Состав

Morris Pleasure - Strings, Keyboards
Alec Shantzis - Keyboards
Lori-Ann Velez - Vocals (Background)
Isaac Wiley, Jr. - Drums
Buz - Vocals
D. James - Guitar
Andrew Sherman - Keyboards
April Spikes - Vocals (Background)
Jerry Elcock - Vocals (Background)
Amanda Elliot - Vocals (Background)
Ushanda Tiana Goldsboro - Vocals (Background)
Bill Jacobs - Vocals (Background)
Pocket - Guitar
Artie Reynolds - Bass
Richie Ruiz - Percussion
Angela Stribling - Vocals (Background)
Bryan Tate - Clavinet
Bernard Davis - Drums
Christian - Vocals (Background), Producer
Robert Damper - Strings, Keyboards
Barry Sonjohn Johnson - Bass, Vocals (Background)
Victor Bailey - Bass
Najee - Flute, Main Performer, Producer, Sax (Soprano), Guitar

Log

Exact Audio Copy V0.99 prebeta 4 from 23. January 2008
EAC extraction logfile from 3. September 2008, 16:33
Najee / Share My World
Used drive : TSSTcorpCDDVDW SE-S204N Adapter: 0 ID: 0
Read mode : Secure
Utilize accurate stream : Yes
Defeat audio cache : Yes
Make use of C2 pointers : No
Read offset correction : 6
Overread into Lead-In and Lead-Out : No
Fill up missing offset samples with silence : Yes
Delete leading and trailing silent blocks : No
Null samples used in CRC calculations : Yes
Used interface : Installed external ASPI interface
Used output format : User Defined Encoder
Selected bitrate : 128 kBit/s
Quality : High
Add ID3 tag : No
Command line compressor : C:\Program Files\FLAC\flac.exe
Additional command line options : -8 -V -T "ARTIST=%a" -T "TITLE=%t" -T "ALBUM=%g" -T "DATE=%y" -T "TRACKNUMBER=%n" -T "GENRE=%m" -T "COMMENT=EAC FLAC -8" %s
TOC of the extracted CD
Track | Start | Length | Start sector | End sector
---------------------------------------------------------
1 | 0:00.00 | 6:15.52 | 0 | 28176
2 | 6:15.52 | 4:50.63 | 28177 | 49989
3 | 11:06.40 | 6:53.27 | 49990 | 80991
4 | 17:59.67 | 4:52.35 | 80992 | 102926
5 | 22:52.27 | 5:52.38 | 102927 | 129364
6 | 28:44.65 | 4:59.30 | 129365 | 151819
7 | 33:44.20 | 5:14.52 | 151820 | 175421
8 | 38:58.72 | 5:10.40 | 175422 | 198711
9 | 44:09.37 | 6:36.43 | 198712 | 228454
10 | 50:46.05 | 1:59.57 | 228455 | 237436
11 | 52:45.62 | 4:43.70 | 237437 | 258731
12 | 57:29.57 | 6:27.38 | 258732 | 287794
Range status and errors
Selected range
Filename J:\TTT\NAJEE{rutracker.org]\Share My World[1994]\Najee - Share My World.wav
Peak level 100.0 %
Range quality 100.0 %
Test CRC 1937D906
Copy CRC 1937D906
Copy OK
No errors occurred
AccurateRip summary
Track 1 accurately ripped (confidence 4) [4F112331]
Track 2 accurately ripped (confidence 4) [7E587514]
Track 3 accurately ripped (confidence 4) [C596FEB2]
Track 4 accurately ripped (confidence 4) [53338D95]
Track 5 accurately ripped (confidence 4) [1A15AF69]
Track 6 accurately ripped (confidence 4) [90D6D6A7]
Track 7 accurately ripped (confidence 4) [C640FBC2]
Track 8 accurately ripped (confidence 4) [7945B2F1]
Track 9 accurately ripped (confidence 4) [E1E5E541]
Track 10 accurately ripped (confidence 4) [47FA9B34]
Track 11 accurately ripped (confidence 4) [314F88FF]
Track 12 accurately ripped (confidence 4) [25BEA945]
All tracks accurately ripped
End of status report

1995 - Najee Plays Songs From The Key of Life

Производитель диска: USA (EMI)
Продолжительность: 1:11:12
Billboard Charts:
Top Contemporary Jazz Albums No. 6
Top R&B/Hip-Hop Albums No. 67

01. Love's In Need Of Love Today 04:34
02. Have A Talk With God 01:59
03. Village Ghetto Land 03:21
04. Confusion 04:11
05. Sir Duke 04:52
06. I Wish 03:52
07. Knocks Me Off My Feet 05:35
08. Pastime Paradise 02:32
09. Summer Soft 05:59
10. Ordinary Pain 03:46
11. Saturn / Ebony Eyes 02:46
12. Isn't She Lovely / Joy Inside My Tears 02:28
13. Black Man 05:01
14. Nigiculela-Es Uno Historia / I Am Singing 04:00
15. If It's Magic 01:49
16. As 04:29
17. Another Star 04:48
18. All Day Sucker / Easy Goin' Evening 04:59

Состав

Greg Phillinganes - piano, Fender Rhodes piano, Mini-moog synthesizer
Chuck Rainey
Jerry Hey
Reggie Young - trombone
Gary Grant - trumpet, flugelhorn
David T. Walker
Phil Upchurch
Freddie Washington
James Gadson - guitar, drums
Michael White - drums
Ronnie Foster - piano, Fender Rhodes piano, Clavinet
Michael Sembello
Wah Wah Watson - guitar
Ray Fuller
Byron Miller - bass
Leon "Ndugu" Chancler
Najee - soprano, alto & tenor saxophones, flute, lyricon
Paulinho DaCosta - percussion
Jamal
Daniel Higgins - alto & tenor saxophones
Wayne Holmes
Also: Herbie Hancock, Paul Jackson Jr., George Duke, Stanley Clarke, Sheila E., Ray Parker Jr., Patrice Rushen

Log

Exact Audio Copy V0.99 prebeta 4 from 23. January 2008
EAC extraction logfile from 4. September 2008, 10:39
Najee / Najee Plays Songs From The Key of Life
Used drive : TSSTcorpCDDVDW SE-S204N Adapter: 0 ID: 0
Read mode : Secure
Utilize accurate stream : Yes
Defeat audio cache : Yes
Make use of C2 pointers : No
Read offset correction : 6
Overread into Lead-In and Lead-Out : No
Fill up missing offset samples with silence : Yes
Delete leading and trailing silent blocks : No
Null samples used in CRC calculations : Yes
Used interface : Installed external ASPI interface
Used output format : User Defined Encoder
Selected bitrate : 128 kBit/s
Quality : High
Add ID3 tag : No
Command line compressor : C:\Program Files\FLAC\flac.exe
Additional command line options : -8 -V -T "ARTIST=%a" -T "TITLE=%t" -T "ALBUM=%g" -T "DATE=%y" -T "TRACKNUMBER=%n" -T "GENRE=%m" -T "COMMENT=EAC FLAC -8" %s
TOC of the extracted CD
Track | Start | Length | Start sector | End sector
---------------------------------------------------------
1 | 0:00.00 | 4:34.02 | 0 | 20551
2 | 4:34.02 | 1:59.58 | 20552 | 29534
3 | 6:33.60 | 3:21.70 | 29535 | 44679
4 | 9:55.55 | 4:11.52 | 44680 | 63556
5 | 14:07.32 | 4:52.40 | 63557 | 85496
6 | 18:59.72 | 3:52.28 | 85497 | 102924
7 | 22:52.25 | 5:35.70 | 102925 | 128119
8 | 28:28.20 | 2:32.65 | 128120 | 139584
9 | 31:01.10 | 5:59.50 | 139585 | 166559
10 | 37:00.60 | 3:46.47 | 166560 | 183556
11 | 40:47.32 | 2:46.33 | 183557 | 196039
12 | 43:33.65 | 2:28.72 | 196040 | 207211
13 | 46:02.62 | 5:01.60 | 207212 | 229846
14 | 51:04.47 | 4:00.63 | 229847 | 247909
15 | 55:05.35 | 1:49.67 | 247910 | 256151
16 | 56:55.27 | 4:29.48 | 256152 | 276374
17 | 61:25.00 | 4:48.17 | 276375 | 297991
18 | 66:13.17 | 4:59.53 | 297992 | 320469
Range status and errors
Selected range
Filename J:\TTT\NAJEE{rutracker.org]\[1995]Najee Plays Songs From The Key of Life\Najee - Najee Plays Songs From The Key of Life.wav
Peak level 100.0 %
Range quality 100.0 %
Test CRC E27DCCAA
Copy CRC E27DCCAA
Copy OK
No errors occurred
AccurateRip summary
Track 1 accurately ripped (confidence 6) [445A4092]
Track 2 accurately ripped (confidence 6) [9C0362D1]
Track 3 accurately ripped (confidence 6) [FFD20593]
Track 4 accurately ripped (confidence 6) [FE51531D]
Track 5 accurately ripped (confidence 7) [0A5F2D16]
Track 6 accurately ripped (confidence 6) [A483DF45]
Track 7 accurately ripped (confidence 7) [67FDBE2F]
Track 8 accurately ripped (confidence 6) [E6BA72A3]
Track 9 accurately ripped (confidence 6) [820701DD]
Track 10 accurately ripped (confidence 6) [B91B87F0]
Track 11 accurately ripped (confidence 6) [F87D4D67]
Track 12 accurately ripped (confidence 7) [172EED9E]
Track 13 accurately ripped (confidence 6) [7B45A8AC]
Track 14 accurately ripped (confidence 7) [BF1CD0FB]
Track 15 accurately ripped (confidence 6) [AF99D8E0]
Track 16 accurately ripped (confidence 6) [7C6C0BCB]
Track 17 accurately ripped (confidence 6) [329460D1]
Track 18 accurately ripped (confidence 6) [F79AD804]
All tracks accurately ripped
End of status report

1998 - Morning Tenderness

pic

Производитель диска: USA (PolyGram Records)
Продолжительность: 0:56:18
Billboard Charts:
Top Contemporary Jazz Albums No. 2
Top R&B/Hip-Hop Albums No. 65

01. Not A Day Goes By 05:35
02. Sapphire 05:07
03. Window Of Change 04:50
04. All The Things (Your Man Won't Do) 04:49
05. Just For You 04:47
06. Room To Breathe 05:00
07. Morning Tenderness 04:51
08. Indian Summer 04:47
09. Second Time Around 04:12
10. Spirals 03:44

Состав

James Manning - Bass
Nick Smith - Piano, Keyboards
Lori-Ann Velez - Vocals (Background)
Michael White - Drums
Gene Williams - Keyboards
Fareed - Guitar, Producer, Vocals (Background)
Jamal Rasheed - Children's Voices
Regis Branson - Piano, Vocals
Miss Jones - Vocals, Vocals (Background)
Victor Sien - Percussion
Dai Starr - Drums
Craig Booker - Drum Programming
Ty Causey - Vocals (Background)
Audrey Wheeler - Vocals (Background)
Sekou Bunch - Bass
Rachel Z - Keyboards
Freddie Fox - Guitar
Najee - Flute, Keyboards, Sax (Soprano), Main Performer, Synthesizer Bass, Producer, Sax (Tenor)

Log

Exact Audio Copy V0.99 prebeta 4 from 23. January 2008
EAC extraction logfile from 4. September 2008, 13:54
Najee / Morning Tenderness
Used drive : TSSTcorpCDDVDW SE-S204N Adapter: 0 ID: 0
Read mode : Secure
Utilize accurate stream : Yes
Defeat audio cache : Yes
Make use of C2 pointers : No
Read offset correction : 6
Overread into Lead-In and Lead-Out : No
Fill up missing offset samples with silence : Yes
Delete leading and trailing silent blocks : No
Null samples used in CRC calculations : Yes
Used interface : Installed external ASPI interface
Used output format : User Defined Encoder
Selected bitrate : 128 kBit/s
Quality : High
Add ID3 tag : No
Command line compressor : C:\Program Files\FLAC\flac.exe
Additional command line options : -8 -V -T "ARTIST=%a" -T "TITLE=%t" -T "ALBUM=%g" -T "DATE=%y" -T "TRACKNUMBER=%n" -T "GENRE=%m" -T "COMMENT=EAC FLAC -8" %s
TOC of the extracted CD
Track | Start | Length | Start sector | End sector
---------------------------------------------------------
1 | 0:00.00 | 5:35.65 | 0 | 25189
2 | 5:35.65 | 5:07.27 | 25190 | 48241
3 | 10:43.17 | 4:50.58 | 48242 | 70049
4 | 15:34.00 | 4:49.40 | 70050 | 91764
5 | 20:23.40 | 4:47.65 | 91765 | 113354
6 | 25:11.30 | 5:00.15 | 113355 | 135869
7 | 30:11.45 | 4:51.12 | 135870 | 157706
8 | 35:02.57 | 4:47.33 | 157707 | 179264
9 | 39:50.15 | 4:12.60 | 179265 | 198224
10 | 44:03.00 | 3:44.12 | 198225 | 215036
Range status and errors
Selected range
Filename J:\TTT\NAJEE{rutracker.org]\[2005]Morning Tenderness\Najee - Morning Tenderness.wav
Peak level 99.8 %
Range quality 100.0 %
Test CRC 4A813E4F
Copy CRC 4A813E4F
Copy OK
No errors occurred
AccurateRip summary
Track 1 accurately ripped (confidence 3) [EF0FFCD7]
Track 2 accurately ripped (confidence 3) [9B2960EC]
Track 3 accurately ripped (confidence 3) [8CB52171]
Track 4 accurately ripped (confidence 3) [40870286]
Track 5 accurately ripped (confidence 3) [2262A98F]
Track 6 accurately ripped (confidence 3) [0BD41E6E]
Track 7 accurately ripped (confidence 3) [120BADD5]
Track 8 accurately ripped (confidence 3) [C08B5026]
Track 9 accurately ripped (confidence 3) [9754D408]
Track 10 accurately ripped (confidence 3) [F9C5180C]
All tracks accurately ripped
End of status report

1998 – The Best Of Najee

Производитель диска: USA (Blue Note)
Продолжительность: 0:54:25
Billboard Charts:

Top Contemporary Jazz Albums No. 15
1. For the Love of You 05:01
2. Najee's Theme 04:34
3. Sweet Love 04:43
4. Tokyo Blue 04:34
5. Can't Hide Love 05:06
6. Niculela Es Una Historia 03:59
7. My Old Friend 04:52
8. Day by Day 05:02
9. Betcha Don't Know 05:47
10. Have You Ever Loved Somebody 05:20
11. Noah's Ark 05:03

Состав

Rahni Song - Producer
Najee - Producer, Main Performer

Log

Exact Audio Copy V0.99 prebeta 4 from 23. January 2008
EAC extraction logfile from 1. October 2008, 10:02
Najee / The Best of Najee
Used drive : TSSTcorpCDDVDW SE-S204N Adapter: 0 ID: 0
Read mode : Secure
Utilize accurate stream : Yes
Defeat audio cache : Yes
Make use of C2 pointers : No
Read offset correction : 6
Overread into Lead-In and Lead-Out : No
Fill up missing offset samples with silence : Yes
Delete leading and trailing silent blocks : No
Null samples used in CRC calculations : Yes
Used interface : Installed external ASPI interface
Used output format : User Defined Encoder
Selected bitrate : 128 kBit/s
Quality : High
Add ID3 tag : No
Command line compressor : C:\Program Files\FLAC\flac.exe
Additional command line options : -8 -V -T "ARTIST=%a" -T "TITLE=%t" -T "ALBUM=%g" -T "DATE=%y" -T "TRACKNUMBER=%n" -T "GENRE=%m" -T "COMMENT=EAC FLAC -8" %s
TOC of the extracted CD
Track | Start | Length | Start sector | End sector
---------------------------------------------------------
1 | 0:00.00 | 5:02.60 | 0 | 22709
2 | 5:02.60 | 4:36.27 | 22710 | 43436
3 | 9:39.12 | 4:45.13 | 43437 | 64824
4 | 14:24.25 | 4:36.67 | 64825 | 85591
5 | 19:01.17 | 5:07.55 | 85592 | 108671
6 | 24:08.72 | 4:00.53 | 108672 | 126724
7 | 28:09.50 | 4:55.22 | 126725 | 148871
8 | 33:04.72 | 5:05.15 | 148872 | 171761
9 | 38:10.12 | 5:49.25 | 171762 | 197961
10 | 43:59.37 | 5:22.05 | 197962 | 222116
11 | 49:21.42 | 5:03.43 | 222117 | 244884
Range status and errors
Selected range
Filename J:\TTT\NAJEE{rutracker.org]\[1998]The Best of Najee\Najee - The Best of Najee.wav
Peak level 98.8 %
Range quality 100.0 %
Test CRC EA906716
Copy CRC EA906716
Copy OK
No errors occurred
AccurateRip summary
Track 1 accurately ripped (confidence 1) [5C8AC5C6]
Track 2 accurately ripped (confidence 1) [36F45CB2]
Track 3 accurately ripped (confidence 1) [CCAE02DB]
Track 4 accurately ripped (confidence 1) [EA3AE08E]
Track 5 accurately ripped (confidence 1) [8C9382BC]
Track 6 accurately ripped (confidence 1) [D9BCBA20]
Track 7 accurately ripped (confidence 1) [729CCC23]
Track 8 accurately ripped (confidence 1) [898E7C1E]
Track 9 accurately ripped (confidence 1) [60ACD4E7]
Track 10 accurately ripped (confidence 1) [E4220789]
Track 11 accurately ripped (confidence 1) [11088126]
All tracks accurately ripped
End of status report

2000 - Love Songs

Производитель диска: USA (Capitol Records)
Продолжительность: 0:47:19
Billboard Charts:
Top Contemporary Jazz Albums No. 23

01. If it's magic 01:45
02. Now that I've found love 06:24
03. Gina 04:06
04. Easy going even 03:52
05. All I ever ask 04:40
06. I adore mi amore 05:26
07. Love's in need of love 04:33
08. Stay 05:08
09. Until we meet again 04:45
10. That's the way of the world 06:35

Состав

Paul Jackson, Jr.
Chuck Rainey - bass
Cindy Mizelle
James Gadson - drums
Ronnie Foster - Fender Rhodes piano, Clavinet
Wah Wah Watson
Ray Fuller - guitar
Morris Pleasure - strings, keyboards
Audrey Wheeler - background vocals
Najee - soprano, alto & tenor saxophones, alto flute, keyboards, drums
Steve Skinner - keyboards, programming
Bernard Davis
Steve Dubin - drums, percussion
Mitchell Foreman - keyboards
Alec Shantzis - keyboards, bass
Fareed - keyboards, guitar, percussion, programming
Robert Damper
Also: George Duke, Sheila E., Omar Hakim, Victor Bailey, Freddie Jackson, Alex Bugnon

Log

Exact Audio Copy V0.99 prebeta 4 from 23. January 2008
EAC extraction logfile from 3. September 2008, 16:06
Najee / Love Songs
Used drive : TSSTcorpCDDVDW SE-S204N Adapter: 0 ID: 0
Read mode : Secure
Utilize accurate stream : Yes
Defeat audio cache : Yes
Make use of C2 pointers : No
Read offset correction : 6
Overread into Lead-In and Lead-Out : No
Fill up missing offset samples with silence : Yes
Delete leading and trailing silent blocks : No
Null samples used in CRC calculations : Yes
Used interface : Installed external ASPI interface
Used output format : User Defined Encoder
Selected bitrate : 128 kBit/s
Quality : High
Add ID3 tag : No
Command line compressor : C:\Program Files\FLAC\flac.exe
Additional command line options : -8 -V -T "ARTIST=%a" -T "TITLE=%t" -T "ALBUM=%g" -T "DATE=%y" -T "TRACKNUMBER=%n" -T "GENRE=%m" -T "COMMENT=EAC FLAC -8" %s
TOC of the extracted CD
Track | Start | Length | Start sector | End sector
---------------------------------------------------------
1 | 0:00.00 | 1:45.62 | 0 | 7936
2 | 1:45.62 | 6:24.68 | 7937 | 36804
3 | 8:10.55 | 4:06.20 | 36805 | 55274
4 | 12:17.00 | 3:52.07 | 55275 | 72681
5 | 16:09.07 | 4:40.68 | 72682 | 93749
6 | 20:50.00 | 5:26.40 | 93750 | 118239
7 | 26:16.40 | 4:33.60 | 118240 | 138774
8 | 30:50.25 | 5:08.10 | 138775 | 161884
9 | 35:58.35 | 4:45.37 | 161885 | 183296
10 | 40:43.72 | 6:35.48 | 183297 | 212969
Range status and errors
Selected range
Filename J:\TTT\NAJEE{rutracker.org]\Love Songs[2000]\Najee - Love Songs.wav
Peak level 98.8 %
Range quality 100.0 %
Test CRC 75CE4EFF
Copy CRC 75CE4EFF
Copy OK
No errors occurred
AccurateRip summary
Track 1 cannot be verified as accurate (confidence 1) [7C08A920], AccurateRip returned [3E0AEB6E]
Track 2 cannot be verified as accurate (confidence 1) [73F50343], AccurateRip returned [F6AAB6A3]
Track 3 cannot be verified as accurate (confidence 1) [7939423B], AccurateRip returned [6540D663]
Track 4 cannot be verified as accurate (confidence 1) [E1E8E9AF], AccurateRip returned [A9BE4785]
Track 5 cannot be verified as accurate (confidence 1) [16A022D8], AccurateRip returned [A88755C6]
Track 6 cannot be verified as accurate (confidence 1) [2540BC14], AccurateRip returned [052C7B02]
Track 7 cannot be verified as accurate (confidence 1) [7C1F7F14], AccurateRip returned [23E5539C]
Track 8 cannot be verified as accurate (confidence 1) [714A2C0D], AccurateRip returned [FCEA78E7]
Track 9 cannot be verified as accurate (confidence 1) [FC040C6C], AccurateRip returned [7A372E82]
Track 10 cannot be verified as accurate (confidence 1) [5A1785BC], AccurateRip returned [F328237E]
No tracks could be verified as accurate
You may have a different pressing from the one(s) in the database
End of status report

2003 - Embrace

Производитель диска: USA (N-CODED Music)
Продолжительность: 0:56:18
Billboard Charts:
Top Contemporary Jazz Albums No. 7
Top R&B/Hip-Hop Albums No. 82

01. Embrace 04:34
02. Eye 2 Eye 04:43
03. Sunshine sometimes Rain 04:10
04. La Smooth (Dedicated to Grover Washington) 04:55
05. On The Way 05:22
06. Vibin' w/Ayers ( Featuring Roy Ayers) 05:31
07. Believe 03:23
08. Someone Watching over you (Featuring Bebe Winans) 05:09
09. Mali's Bounce 00:24
10. Peruvian Sunset 04:36
11. Before Dawn 04:04
12. Movimientos (Featuring Pete Escovedo) 05:24
13. Bonus 03:55

Состав

BeBe Winans – Vocals
Kevin Walker - Bass, Percussion Sequencing, Producer
John Lampkin - Drum Programming
Greg Phillips – Drums
Sisandra Lewis - Vocals (Background)
Mike Scott - Guitar
Robyn Springer - Vocals (Background)
Bashiri Johnson - Percussion
Dinky Bingham - Keyboards, Drum Programming
Moe Daniels - Strings, Keyboards, String Arrangements
James K. Lloyd - Keyboards
Roy Ayers – Vibraphone
Pete Escovedo - Percussion
Omar Hakim - Drums
Najee - Flute, Drum Programming, Crowd Noise, Soloist, String Arrangements, Executive Producer, Producer, Moog Synthesizer, Keyboards, Sax (Alto), Sax (Soprano)

Log

Exact Audio Copy V0.99 prebeta 4 from 23. January 2008
EAC extraction logfile from 4. September 2008, 13:03
Najee / Embrace
Used drive : TSSTcorpCDDVDW SE-S204N Adapter: 0 ID: 0
Read mode : Secure
Utilize accurate stream : Yes
Defeat audio cache : Yes
Make use of C2 pointers : No
Read offset correction : 6
Overread into Lead-In and Lead-Out : No
Fill up missing offset samples with silence : Yes
Delete leading and trailing silent blocks : No
Null samples used in CRC calculations : Yes
Used interface : Installed external ASPI interface
Used output format : User Defined Encoder
Selected bitrate : 128 kBit/s
Quality : High
Add ID3 tag : No
Command line compressor : C:\Program Files\FLAC\flac.exe
Additional command line options : -8 -V -T "ARTIST=%a" -T "TITLE=%t" -T "ALBUM=%g" -T "DATE=%y" -T "TRACKNUMBER=%n" -T "GENRE=%m" -T "COMMENT=EAC FLAC -8" %s
TOC of the extracted CD
Track | Start | Length | Start sector | End sector
---------------------------------------------------------
1 | 0:00.00 | 4:34.50 | 0 | 20599
2 | 4:34.50 | 4:43.20 | 20600 | 41844
3 | 9:17.70 | 4:10.72 | 41845 | 60666
4 | 13:28.67 | 4:55.50 | 60667 | 82841
5 | 18:24.42 | 5:22.60 | 82842 | 107051
6 | 23:47.27 | 5:31.55 | 107052 | 131931
7 | 29:19.07 | 3:23.55 | 131932 | 147211
8 | 32:42.62 | 5:09.38 | 147212 | 170424
9 | 37:52.25 | 0:24.70 | 170425 | 172294
10 | 38:17.20 | 4:36.37 | 172295 | 193031
11 | 42:53.57 | 4:04.63 | 193032 | 211394
12 | 46:58.45 | 5:24.50 | 211395 | 235744
13 | 52:23.20 | 3:55.07 | 235745 | 253376
Range status and errors
Selected range
Filename J:\TTT\NAJEE{rutracker.org]\[2003]Embrace\Najee - Embrace.wav
Peak level 100.0 %
Range quality 100.0 %
Test CRC EC80DEB1
Copy CRC EC80DEB1
Copy OK
No errors occurred
AccurateRip summary
Track 1 accurately ripped (confidence 2) [BD9D3337]
Track 2 accurately ripped (confidence 2) [1E086FD2]
Track 3 accurately ripped (confidence 2) [DAC21029]
Track 4 accurately ripped (confidence 2) [F58D077C]
Track 5 accurately ripped (confidence 2) [DF3FC1F0]
Track 6 accurately ripped (confidence 2) [395C0F33]
Track 7 accurately ripped (confidence 2) [3A99318B]
Track 8 accurately ripped (confidence 2) [A70CB6B2]
Track 9 accurately ripped (confidence 2) [C9AA5C8B]
Track 10 accurately ripped (confidence 2) [7A038CF8]
Track 11 accurately ripped (confidence 2) [DA62F0F6]
Track 12 accurately ripped (confidence 2) [C91544E6]
Track 13 accurately ripped (confidence 2) [795D26B4]
All tracks accurately ripped
End of status report

2005 - My Point Of View

pic

Производитель диска: USA (PolyGram Records)
Продолжительность: 0:45:52
Billboard Charts:
Top Contemporary Jazz Album No. 1

1. Sidewayz 05:34
2. 3 A.M. 05:12
3. Fallin' in Love with You 05:09
4. Back in the Day 04:37
5. Charm 03:30
6. My Point of View 04:40
7. 2nd 2 None 03:50
8. Emotional 04:03
9. How Lovely You Are 05:16
10. Miyuki 03:55

Состав

Rex Rideout - Keyboards, Programming, Engineer, Producer
Michael White - Drums, Engineer
Nathanial Wilkie - Keyboards
Rohan Reid - Guitar (Bass), Vocal Arrangement
Greg Phillips - Drums
Alvin S. White - Guitar
Chris "Big Dog" Davis - Keyboards, Programming, Keyboard Programming, Drum Programming, Producer
Wayne Bruce - Guitar
James K. Lloyd - Keyboards, Programming, Producer
Will Downing - Vocals, Vocals (Background)
Najee - Flute, Sax (Alto), Engineer, Sax (Soprano) Dwight Sills Guitar

Log

Exact Audio Copy V0.99 prebeta 4 from 23. January 2008
EAC extraction logfile from 4. September 2008, 14:25
Najee / My Point Of View
Used drive : TSSTcorpCDDVDW SE-S204N Adapter: 0 ID: 0
Read mode : Secure
Utilize accurate stream : Yes
Defeat audio cache : Yes
Make use of C2 pointers : No
Read offset correction : 6
Overread into Lead-In and Lead-Out : No
Fill up missing offset samples with silence : Yes
Delete leading and trailing silent blocks : No
Null samples used in CRC calculations : Yes
Used interface : Installed external ASPI interface
Used output format : User Defined Encoder
Selected bitrate : 128 kBit/s
Quality : High
Add ID3 tag : No
Command line compressor : C:\Program Files\FLAC\flac.exe
Additional command line options : -8 -V -T "ARTIST=%a" -T "TITLE=%t" -T "ALBUM=%g" -T "DATE=%y" -T "TRACKNUMBER=%n" -T "GENRE=%m" -T "COMMENT=EAC FLAC -8" %s
TOC of the extracted CD
Track | Start | Length | Start sector | End sector
---------------------------------------------------------
1 | 0:00.00 | 5:34.70 | 0 | 25119
2 | 5:34.70 | 5:12.02 | 25120 | 48521
3 | 10:46.72 | 5:09.68 | 48522 | 71764
4 | 15:56.65 | 4:37.72 | 71765 | 92611
5 | 20:34.62 | 3:30.60 | 92612 | 108421
6 | 24:05.47 | 4:40.00 | 108422 | 129421
7 | 28:45.47 | 3:50.35 | 129422 | 146706
8 | 32:36.07 | 4:03.65 | 146707 | 164996
9 | 36:39.72 | 5:16.40 | 164997 | 188736
10 | 41:56.37 | 3:55.43 | 188737 | 206404
Range status and errors
Selected range
Filename J:\TTT\NAJEE{rutracker.org]\[1998]My Point Of View\Najee - My Point Of View.wav
Peak level 100.0 %
Range quality 100.0 %
Test CRC 191F46F2
Copy CRC 191F46F2
Copy OK
No errors occurred
AccurateRip summary
Track 1 cannot be verified as accurate (confidence 2) [00B2E4DA], AccurateRip returned [03744C90]
Track 2 cannot be verified as accurate (confidence 2) [C49DA367], AccurateRip returned [34BF95E7]
Track 3 cannot be verified as accurate (confidence 2) [77B9241D], AccurateRip returned [E31DCD0D]
Track 4 cannot be verified as accurate (confidence 2) [753E7D89], AccurateRip returned [EC764D39]
Track 5 cannot be verified as accurate (confidence 2) [E21B14D4], AccurateRip returned [1952208E]
Track 6 cannot be verified as accurate (confidence 2) [EA5509D9], AccurateRip returned [D8E2867F]
Track 7 cannot be verified as accurate (confidence 2) [BA51D551], AccurateRip returned [A6CED3DF]
Track 8 cannot be verified as accurate (confidence 2) [49B2E9F9], AccurateRip returned [986A9D61]
Track 9 cannot be verified as accurate (confidence 2) [B5CB08CD], AccurateRip returned [9532D613]
Track 10 cannot be verified as accurate (confidence 2) [EC5AD5DF], AccurateRip returned [93CB55FF]
No tracks could be verified as accurate
You may have a different pressing from the one(s) in the database
End of status report

2007 - Rising Sun

pic

Производитель диска: USA (Heads Up International)
Продолжительность: 0:47:45
Billboard Charts:
Top Contemporary Jazz Album No. 1

01. Clarity 04:23
02. Brazillian Affair 04:14
03. Child At Heart 04:14
04. Can't Wait Another Minute 04:11
05. Come What May 04:49
06. Out Of A Dream 04:54
07. Moody's Mood For Love 04:53
08. Still In Love 04:14
09. Romance The Night 04:06
10. Smooth Sailing 03:34
11. Rising Sun 04:07

Состав

Victor Williams - Percussion
David Dyson - Bass
Rohn Lawrence - Guitar
Blues Webb - Drums
Tony Watson, Jr. - Saxophone
Timmy Maia - Vocals (Background)
Reginald Veal - Bass (Acoustic)
Jeff Antoniuk - Sax (Tenor), Horn Arrangements
Randy Bowland - Guitar
Wayne Bruce - Guitar
Gary Grainger - Bass
John Grant - Guitar (Acoustic), Mixing, Engineer, Producer, Guitar, Guitar (Electric), Programming
James K. Lloyd - Keyboards, Drum Programming, Producer
Najee - Flute, Sax (Alto), Producer, Sax (Soprano)

Log

Exact Audio Copy V0.99 prebeta 4 from 23. January 2008
EAC extraction logfile from 22. September 2008, 10:51
Najee / Rising Sun
Used drive : TSSTcorpCDDVDW SE-S204N Adapter: 0 ID: 0
Read mode : Secure
Utilize accurate stream : Yes
Defeat audio cache : Yes
Make use of C2 pointers : No
Read offset correction : 6
Overread into Lead-In and Lead-Out : No
Fill up missing offset samples with silence : Yes
Delete leading and trailing silent blocks : No
Null samples used in CRC calculations : Yes
Used interface : Installed external ASPI interface
Used output format : User Defined Encoder
Selected bitrate : 128 kBit/s
Quality : High
Add ID3 tag : No
Command line compressor : C:\Program Files\FLAC\flac.exe
Additional command line options : -8 -V -T "ARTIST=%a" -T "TITLE=%t" -T "ALBUM=%g" -T "DATE=%y" -T "TRACKNUMBER=%n" -T "GENRE=%m" -T "COMMENT=EAC FLAC -8" %s
TOC of the extracted CD
Track | Start | Length | Start sector | End sector
---------------------------------------------------------
1 | 0:00.00 | 4:23.10 | 0 | 19734
2 | 4:23.10 | 4:14.32 | 19735 | 38816
3 | 8:37.42 | 4:14.38 | 38817 | 57904
4 | 12:52.05 | 4:11.69 | 57905 | 76798
5 | 17:03.74 | 4:49.29 | 76799 | 98502
6 | 21:53.28 | 4:54.66 | 98503 | 120618
7 | 26:48.19 | 4:53.37 | 120619 | 142630
8 | 31:41.56 | 4:14.51 | 142631 | 161731
9 | 35:56.32 | 4:06.48 | 161732 | 180229
10 | 40:03.05 | 3:34.33 | 180230 | 196312
11 | 43:37.38 | 4:07.46 | 196313 | 214883
Range status and errors
Selected range
Filename J:\TTT\NAJEE{rutracker.org]\[2007]Rising Sun\Najee - Rising Sun.wav
Peak level 98.8 %
Range quality 100.0 %
Test CRC 89F9D3A9
Copy CRC 89F9D3A9
Copy OK
No errors occurred
AccurateRip summary
Track 1 accurately ripped (confidence 2) [BBB5CA22]
Track 2 accurately ripped (confidence 3) [95D04790]
Track 3 accurately ripped (confidence 3) [0A2351FA]
Track 4 accurately ripped (confidence 3) [B180B2DB]
Track 5 accurately ripped (confidence 3) [E0CCFFE5]
Track 6 accurately ripped (confidence 3) [4DF69BF2]
Track 7 accurately ripped (confidence 3) [50966936]
Track 8 accurately ripped (confidence 3) [A19B34B9]
Track 9 accurately ripped (confidence 3) [91F306F4]
Track 10 accurately ripped (confidence 3) [5E7C1409]
Track 11 accurately ripped (confidence 3) [777719C8]
All tracks accurately ripped
End of status report

 

Приватный:
Да (DHT отключён)
Размер:
4.02 Гб (4,313,616,893 байт) » файлов: 103
Участники:
0 раздают, 0 качают (0 участников всего)
Внешние участники:
Нет внешних трекеров [ Обновить ]
16:56
61
RSS
Нет комментариев. Ваш будет первым!