Поиск

1985 Ed Bickert & Lorne Lofsky - Ed Bickert Lorne Lofsky Quartet (2022) {Cornerstone} [24-44.1]

1985 Ed Bickert & Lorne Lofsky - Ed Bickert Lorne Lofsky Quartet (2022) {Cornerstone} [24-44.1]
Дата издания диска:
27 января 1985
Дата переиздания диска:
21 января 2022
Номер по каталогу:
CRST-UNS-160D
Носитель:
WEB
Формат:
PCM
Тип рипа:
tracks
Контейнер:
FLAC (*.flac)
Количество каналов:
2.0
Разрядность/ЧД:
24/44,1
Битрейт аудио:
lossless
Наличие сканов:
только обложка

01 - Morning Star 07:07
02 - I Remember You 04:06
03 - Port of Spain 04:33
04 - Falling Grace 03:11
05 - The Cupbearers 03:35
06 - Bittersuite 05:29
07 - Up with the Lark 06:34
08 - Crazy She Calls Me 04:21
09 - Bean and the Boys 05:09

Состав:
  •     Bass – Neil Swainson
  •     Drums – Jerry Fuller (2)
  •     Guitar [Left Channel] – Lorne Lofsky
  •     Guitar [Right Channel] – Ed Bickert
Лог проверки качества
foobar2000 1.4.3 / Dynamic Range Meter 1.1.1
log date: 2022-01-25 18:28:38
--------------------------------------------------------------------------------
Analyzed: Ed Bickert / Ed Bickert/Lorne Lofsky Quartet (1-8)
          Lorne Lofsky / Ed Bickert/Lorne Lofsky Quartet (9)
--------------------------------------------------------------------------------
DR         Peak         RMS     Duration Track
--------------------------------------------------------------------------------
DR9       -0.20 dB   -13.29 dB      7:07 01-Morning Star
DR9       -0.21 dB   -12.66 dB      4:06 02-I Remember You
DR11      -0.20 dB   -15.15 dB      4:34 03-Port of Spain
DR10      -0.20 dB   -12.48 dB      3:36 05-The Cupbearers
DR10      -0.20 dB   -13.41 dB      5:29 06-Bittersuite
DR10      -0.20 dB   -14.27 dB      6:35 07-Up with the Lark
DR11      -0.20 dB   -15.14 dB      4:22 08-Crazy She Calls Me
DR8       -0.20 dB   -12.40 dB      5:10 09-Bean and the Boys
DR11      -0.20 dB   -14.62 dB      3:12 04-Falling Grace
--------------------------------------------------------------------------------
Number of tracks:  9
Official DR value: DR10
Samplerate:        44100 Hz
Channels:          2
Bits per sample:   24
Bitrate:           1485 kbps
Codec:             FLAC
================================================================================
Приватный:
Нет (DHT включён)
Размер:
473.88 Мб (496,895,874 байт) » файлов: 13
Участники:
0 раздают, 0 качают (0 участников всего)
Внешние участники:
--- [ Обновить ]
00:03
383
Нет комментариев. Ваш будет первым!