Вы используете незарегистрированную версию компонента "Вкладки"!

Поиск

1983 Jamaaladeen Tacuma - Show Stopper (1984) {Canyon D35Y0006} [CD]

1983 Jamaaladeen Tacuma - Show Stopper (1984) {Canyon D35Y0006} [CD]
Доп. инфо:
Лог создания рипа
Exact Audio Copy V1.3 from 2. September 2016
Отчёт EAC об извлечении, выполненном 27. апреля 2019, 13:56
Jamaaladeen Tacuma / Show Stopper (1984 Japan D35Y0006) - 1983
Дисковод: PIONEER BD-RW BDR-TD03 Adapter: 1 ID: 0
Режим чтения : Достоверность
Использование точного потока : Да
Отключение кэша аудио : Да
Использование указателей C2 : Нет
Коррекция смещения при чтении : 667
Способность читать области Lead-in и Lead-out : Нет
Заполнение пропущенных сэмплов тишиной : Да
Удаление блоков с тишиной в начале и конце : Нет
При вычислениях CRC использовались нулевые сэмплы : Да
Интерфейс : Встроенный Win32-интерфейс для Win NT/2000
Выходной формат : Пользовательский кодировщик
Выбранный битрейт : 128 kBit/s
Качество : Высокий
Добавление ID3-тега : Нет
Утилита сжатия : C:\Program Files (x86)\Exact Audio Copy\Flac\flac.exe
Дополнительные параметры : -V -8 -T "Date=%year%" -T "Genre=%genre%" %source%
TOC извлечённого CD
Трек | Старт | Длительность | Начальный сектор | Конечный сектор
---------------------------------------------------------------------
1 | 0:00.00 | 6:41.32 | 0 | 30106
2 | 6:41.32 | 6:42.03 | 30107 | 60259
3 | 13:23.35 | 5:13.67 | 60260 | 83801
4 | 18:37.27 | 4:14.00 | 83802 | 102851
5 | 22:51.27 | 2:47.00 | 102852 | 115376
6 | 25:38.27 | 6:03.25 | 115377 | 142626
7 | 31:41.52 | 4:11.53 | 142627 | 161504
8 | 35:53.30 | 4:20.27 | 161505 | 181031
9 | 40:13.57 | 4:47.18 | 181032 | 202574
Характеристики диапазона извлечения и сообщения об ошибках
Выбранный диапазон
Имя файла C:\Users\Ewgen\Pictures\Jamaaladeen Tacuma - Show Stopper (1984 Japan D35Y0006) - 1983\Jamaaladeen Tacuma - Show Stopper (1984 Japan D35Y0006) - 1983.wav
Пиковый уровень 85.8 %
Скорость извлечения 4.5 X
Качество диапазона 100.0 %
CRC теста 257C45D7
CRC копии 257C45D7
Копирование... OK
Ошибок не произошло
AccurateRip: сводка
Трек 1 : извлечено точно (доверие 5) [7F62B8AE] (AR v2)
Трек 2 : извлечено точно (доверие 5) [A2908463] (AR v2)
Трек 3 : извлечено точно (доверие 5) [11ABF7A4] (AR v2)
Трек 4 : извлечено точно (доверие 5) [096A03E1] (AR v2)
Трек 5 : извлечено точно (доверие 5) [9F35B1C4] (AR v2)
Трек 6 : извлечено точно (доверие 5) [6477077D] (AR v2)
Трек 7 : извлечено точно (доверие 5) [CD995ACC] (AR v2)
Трек 8 : извлечено точно (доверие 5) [FB09507E] (AR v2)
Трек 9 : извлечено точно (доверие 5) [49B62CD9] (AR v2)
Все треки извлечены точно
Конец отчёта
---- CUETools DB Plugin V2.1.6
[CTDB TOCID: DaHkr2MdrUFMhgNbUy4gnPD2fIc-] found
Submit result: DaHkr2MdrUFMhgNbUy4gnPD2fIc- has been confirmed
Track | CTDB Status
1 | (4/4) Accurately ripped
2 | (4/4) Accurately ripped
3 | (4/4) Accurately ripped
4 | (4/4) Accurately ripped
5 | (4/4) Accurately ripped
6 | (4/4) Accurately ripped
7 | (4/4) Accurately ripped
8 | (4/4) Accurately ripped
9 | (4/4) Accurately ripped
==== Контрольная сумма отчёта 36BF3037FAE2996B3B353FC592E40E3BAEFFE4E12D55E3A3CE74ACF63CB64504 ====
Any questions - support@pro-jazz.com. Есть вопросы - support@pro-jazz.com
03:00
108
Нет комментариев. Ваш будет первым!