Поиск

1983 George Adams, Dannie Richmond - Gentleman's Agreement {Soul Note 121057} [CD]

1983 George Adams, Dannie Richmond - Gentleman's Agreement {Soul Note 121057} [CD]
Стили:
Дата записи диска:
11 января, 12 января 1983
Место записи:
Vanguard Studios, New York, NY, USA
Дата издания диска:
31 декабря 1983
Издатель (лейбл):
Номер по каталогу:
121057
Треклист:

1. More Sightings
2. Don't Take Your Love From Me
3. Symphony For Five
4. Prayer For a Jitterbug
5. Dream Of The Rising Sun
6. Rip Off

Состав:
Доп. инфо:

Страна-производитель диска: France
Год издания диска: 1983
Аудио кодек: APE (*.ape)
Тип рипа: image+.cue
Битрейт аудио: lossless
Продолжительность: 44:07
Наличие сканов в содержимом раздачи: да
Источник (релизер): nnm, thanks barin99

Лог создания рипа
Exact Audio Copy V1.0 beta 1 from 15. November 2010
EAC extraction logfile from 15. February 2011, 20:30
George Adams & Dannie Richmond Quintet / Gentlemen's Agreement
Used drive  : TSSTcorpDVD+-RW TS-L532B   Adapter: 1  ID: 0
Read mode               : Secure
Utilize accurate stream : Yes
Defeat audio cache      : Yes
Make use of C2 pointers : No
Read offset correction                      : 704
Overread into Lead-In and Lead-Out          : No
Fill up missing offset samples with silence : Yes
Delete leading and trailing silent blocks   : No
Null samples used in CRC calculations       : Yes
Used interface                              : Native Win32 interface for Win NT & 2000
Used output format : Internal WAV Routines
Sample format      : 44.100 Hz; 16 Bit; Stereo
TOC of the extracted CD
     Track |   Start  |  Length  | Start sector | End sector
    ---------------------------------------------------------
        1  |  0:00.32 |  5:13.70 |        32    |    23576
        2  |  5:14.27 |  4:54.53 |     23577    |    45679
        3  | 10:09.05 | 11:38.35 |     45680    |    98064
        4  | 21:47.40 |  8:20.35 |     98065    |   135599
        5  | 30:08.00 |  6:22.70 |    135600    |   164319
        6  | 36:30.70 |  7:36.52 |    164320    |   198571
Range status and errors
Selected range
     Filename C:\Documents and Settings\VB\My Documents\BARIN99\George Adams & Dannie Richmond Quintet - Gentlemen's Agreement\George Adams & Dannie Richmond Quintet - Gentlemen's Agreement.wav
     Peak level 90.9 %
     Extraction speed 0.9 X
     Range quality 100.0 %
     Copy CRC A02FDC34
     Copy OK
No errors occurred
AccurateRip summary
Track  1  not present in database
Track  2  not present in database
Track  3  not present in database
Track  4  not present in database
Track  5  not present in database
Track  6  not present in database
None of the tracks are present in the AccurateRip database
End of status report
Содержание индексной карты (.CUE)
REM GENRE Jazz
REM DATE 1983
REM DISCID 390A5706
REM COMMENT "ExactAudioCopy v1.0b1"
PERFORMER "George Adams & Dannie Richmond Quintet"
TITLE "Gentlemen's Agreement"
FILE "George Adams & Dannie Richmond Quintet - Gentlemen's Agreement.wav" WAVE
  TRACK 01 AUDIO
    TITLE "More Sightings"
    PERFORMER "George Adams & Dannie Richmond Quintet"
    INDEX 00 00:00:00
    INDEX 01 00:00:32
  TRACK 02 AUDIO
    TITLE "Don't Take Your Love From Me"
    PERFORMER "George Adams & Dannie Richmond Quintet"
    INDEX 00 05:12:62
    INDEX 01 05:14:27
  TRACK 03 AUDIO
    TITLE "Symphony For Five"
    PERFORMER "George Adams & Dannie Richmond Quintet"
    INDEX 00 10:05:40
    INDEX 01 10:09:05
  TRACK 04 AUDIO
    TITLE "Prayer For A Jitterbug"
    PERFORMER "George Adams & Dannie Richmond Quintet"
    INDEX 00 21:42:67
    INDEX 01 21:47:40
  TRACK 05 AUDIO
    TITLE "Dream Of The Rising Sun"
    PERFORMER "George Adams & Dannie Richmond Quintet"
    INDEX 00 30:04:47
    INDEX 01 30:08:00
  TRACK 06 AUDIO
    TITLE "Rip Off"
    PERFORMER "George Adams & Dannie Richmond Quintet"
    INDEX 00 36:28:70
    INDEX 01 36:30:70
02:10
664
Нет комментариев. Ваш будет первым!